<?xml version="1.0" standalone="no"?>
<!DOCTYPE svg PUBLIC "-//W3C//DTD SVG 1.1//EN" "http://www.w3.org/Graphics/SVG/1.1/DTD/svg11.dtd" >
<!--
2013-9-30: Created.
-->
<svg>
<metadata>
Created by iconfont
</metadata>
<defs>

<font id="iconfont" horiz-adv-x="1024" >
  <font-face
    font-family="iconfont"
    font-weight="500"
    font-stretch="normal"
    units-per-em="1024"
    ascent="896"
    descent="-128"
  />
    <missing-glyph />
    
    <glyph glyph-name="youjianxinxiicon" unicode="&#58903;" d="M915.4736928 718.5812864c-10.03372373 4.87257493-23.3476192 8.23666027-41.21445867 8.23666027L147.4954048 726.8179456c-17.86574827 0-31.17855253-3.36517653-41.21336747-8.23666027-41.27231253-16.76257387-70.59410133-57.6849984-70.59410133-105.5964672l0-455.39254293c0-47.59165227 28.88625173-88.33943147 69.7230272-105.3061216 9.94858133-4.98718507 23.43494507-8.52809707 42.0844416-8.52809707l726.76382933 0c18.65058773 0 32.13586027 3.5398208 42.0844416 8.52809707 40.80839467 16.96669013 69.72521067 57.71446933 69.72521067 105.3061216L986.06888533 612.9859104C986.06888533 660.896288 956.74491307 701.81871147 915.4736928 718.5812864zM930.1498688 612.9859104l0-455.39254293c0-7.36562133-1.48017067-14.3852288-4.00279253-20.8525248-3.59672747 4.26350293-7.68684587 8.61323627-12.73208854 13.1103264L680.95286507 356.98362453000004l240.03217066 259.68509654c2.92868587 3.16106133 5.2482752 6.20751147 7.56895574 9.2517792C929.54186347 621.77269973 930.1498688 617.45134507 930.1498688 612.9859104zM874.25923307 669.88719253c5.134752 0 10.00643413-0.9288896 14.73402986-2.26273493-1.36228053-2.75501333-3.9143744-6.78492907-8.699824-11.91947093L548.00165973 296.19541653c-19.8960704-21.51944747-54.35152-21.51944747-74.24868266 0L141.46338133 655.70498773c-4.78544853 5.1345408-7.3375424 9.1644576-8.7009152 11.91947094 4.72759573 1.33493653 9.60037013 2.26273493 14.73402987 2.26273493L874.25923307 669.88719253zM95.6086528 136.74193387000003c-2.52371307 6.46729493-4.00279253 13.4858112-4.00279253 20.8525248L91.60586027 612.9859104c0 4.46543573 0.60909653 8.78788053 1.56640533 12.93458987 2.34797013-3.04535893 4.64026987-6.09071893 7.59842773-9.2517792l240.0310784-259.68509654-232.46103146-207.13245546C103.2944064 145.35407893000001 99.20538027 141.00543679999998 95.6086528 136.74193387000003zM147.4954048 100.69208533000005c-2.7267456 0-5.36507307 0.4049568-7.976112 0.8110048 1.50746027 1.624192 3.30636907 3.45140693 5.6259584 5.5405888l233.999056 208.4652096 53.91707413-58.32245013c20.62196587-22.30316373 48.26055147-34.59921067 77.81593707-34.59921067 29.5542944 0 57.1939712 12.2971392 77.81593707 34.59921067l53.9181664 58.32245013 233.96958293-208.4652096c2.34797013-2.08918187 4.14688-3.91639787 5.65543147-5.5405888-2.63832747-0.406048-5.2482752-0.8110048-7.9772032-0.8110048L147.4954048 100.69208533000005z"  horiz-adv-x="1024" />

    
    <glyph glyph-name="fuzhi" unicode="&#59038;" d="M69.824 742.176 766.912 742.176 766.912 660.832 836.736 660.832 836.736 812 0 812 0 2.912 122.176 2.912 122.176 72.736 69.824 72.736ZM187.328 597.088 187.328-212 1024-212 1024 597.088 187.328 597.088zM954.176-142.176 257.152-142.176 257.152 527.264l697.024 0L954.176-142.176z"  horiz-adv-x="1024" />

    
    <glyph glyph-name="shangpingouwudai" unicode="&#59272;" d="M920.0928237 621.60668445C917.98110815 640.0295822200001 902.3981037 653.93777778 883.82957036 653.93777778L702.14921481 653.93777778 702.14921481 690.34666667c0 100.34289778-81.55591111 182.04444445-181.75317333 182.04444446S338.64286815 790.68956445 338.64286815 690.34666667L338.64286815 653.93777778 156.96251258 653.93777778C138.39397925 653.93777778 122.88379258 640.0295822200001 120.84489481 621.60668445l-72.74496-655.36c-1.16508445-10.34012445 2.18453333-20.60743111 9.10222222-28.39893332C64.11984592-69.79811555000003 73.87742815-74.24000000000001 84.21755258-74.24000000000001l872.35697778 0c10.34012445 0 20.17052445 4.44188445 27.08821334 12.08775111 6.84487111 7.71868445 10.19448889 18.05880889 9.02940445 28.39893334L920.0928237 621.60668445zM411.38782815 690.34666667c0 60.22030222 48.93354667 109.22666667 109.00821333 109.22666667 60.14748445 0 109.08103111-49.00636445 109.0810311-109.22666667L629.47707258 653.93777778 411.38782815 653.93777778 411.38782815 690.34666667zM124.92269036-1.4222222199999806l64.66218667 582.54222222 149.13080889 0 0-109.22666666c0-20.09770667 16.31118222-36.40888889 36.40888889-36.40888889 20.02488889 0 36.33607111 16.31118222 36.33607111 36.40888889L411.46064592 581.12l218.08924444 0 0-109.22666666C629.47707258 451.79562667 645.71543703 435.48444445 665.8131437 435.48444445c20.02488889 0 36.33607111 16.31118222 36.33607111 36.40888889L702.14921481 581.12l149.20362667 0 64.66218667-582.54222222L124.92269036-1.4222222199999806z"  horiz-adv-x="1024" />

    
    <glyph glyph-name="pingjiakongshuju1" unicode="&#58926;" d="M512-66.10551238999994c-60.75666318 0-119.70984846 11.90667491-175.2226816 35.38682425-53.6033371 22.67394389-101.73915819 55.12604103-143.06999865 96.45921166-41.32967651 41.3308416-73.78060743 89.46666155-96.45338624 143.07116373-23.47781917 55.50933789-35.38332899 114.45902791-35.383329 175.21103076 0 60.75200285 11.90434475 119.70169401 35.383329 175.21103076 22.67161373 53.60450219 55.12371086 101.74032327 96.45338624 143.07116373 41.3308416 41.33200669 89.46549646 73.78526777 143.06999865 96.45921166 55.51166805 23.48014933 114.46485333 35.38682425 175.2226816 35.38682425 60.75666318 0 119.70984846-11.90667491 175.2226816-35.38682425 53.60450219-22.67394389 101.73915819-55.12720498 143.06999865-96.45921166 41.32967651-41.3308416 73.78060743-89.46666155 96.45222116-143.07116373 23.47781917-55.50933789 35.38332899-114.45902791 35.38332899-175.21103076 0-81.71800235-22.29414229-161.55214051-64.58730382-231.70831929l58.76444956-176.89683854c3.15841422-9.50902898 0.67921693-19.98503936-6.40537145-27.07079168-7.08575346-7.08458837-17.56409287-9.56262059-27.07079168-6.40420637l-175.80869518 58.41027869C676.18046407-43.165940620000015 595.20691997-66.10551238999994 512-66.10551238999994zM512 781.19420701c-219.00126435 0-397.17148899-178.17022464-397.17148899-397.171489S292.99757056-13.14760590000003 512-13.14760590000003c77.19183474 0 152.21320704 22.38850958 216.95429518 64.74458339 6.76303758 4.42480981 15.17576761 5.51528334 22.8440394 2.9708436l137.59665721-45.7148746L843.36905216 147.40493426c-2.52230429 7.59254357-1.47726677 15.91673059 2.84385507 22.64831317 41.1875419 64.17255083 62.95741667 138.16169927 62.95741668 213.96947172C909.17032391 603.02398237 731.00126435 781.19420701 512 781.19420701zM512 183.57582734000005c-6.77468843 0-13.54937685 2.58405149-18.71980885 7.75215445L335.60063203 348.9539493c-53.78624853 53.81770467-53.78391837 141.34807552-0.00349525 195.12849863 26.08400611 26.05254997 60.73452658 40.39415125 97.58230756 40.39415125 28.59931989 0 55.86583893-8.63874731 78.81939171-24.68363264 22.95355278 16.04488533 50.22007069 24.68363264 78.8205568 24.68363264 36.84661475 0 71.49830144-14.34160128 97.57065672-40.38366663 53.79090887-53.79090887 53.79323904-141.32127858 0.01631004-195.13082766l-157.6877147-157.63528818C525.54937685 186.15987883000003 518.77352334 183.57582734000005 512 183.57582734000005zM433.1794432 531.52102173c-22.71471957 0-44.07450283-8.8414629-60.14734905-24.89450383-33.12781767-33.12781767-33.1254875-87.06668658 0.01631004-120.22829056L512 247.49323490999996l138.95858517 138.91198294c33.13364309 33.15344839 33.13597326 87.0923173-0.00233016 120.23061959-16.06119538 16.04255517-37.42214258 24.88401806-60.13569821 24.88401806-22.70773021 0-44.05236736-8.8368037-60.09725155-24.88285297-4.96655133-4.96538624-11.70046293-7.75564971-18.72330411-7.75564971s-13.75791787 2.78909725-18.72330411 7.75448462C477.23064547 522.6830540799999 455.88717341 531.52102173 433.1794432 531.52102173z"  horiz-adv-x="1024" />

    
    <glyph glyph-name="jifen" unicode="&#58974;" d="M431.569901 506.947537c104.681923 0 213.559308 23.023883 278.947137 66.922754l0-79.918457 60.578395 0L771.095433 668.933347c0 105.193565-174.879185 161.98581-339.423204 161.98581S92.146697 774.126911 92.146697 668.933347l0-477.566503c0-105.193565 174.879185-161.98581 339.423204-161.98581L431.569901 89.8571c-172.832617 0-278.947137 59.145798-278.947137 101.509743L152.622764 334.933547c65.387829-43.796542 174.162886-66.922754 278.947137-66.922754l0 60.578395c-172.832617 0-278.947137 59.145798-278.947137 101.509743L152.622764 573.767962C218.010593 529.97142 326.887978 506.947537 431.569901 506.947537zM431.569901 770.44309c172.832617 0 278.947137-59.145798 278.947137-101.509743s-106.11452-101.509743-278.947137-101.509743-278.947137 59.145798-278.947137 101.509743S258.839612 770.44309 431.569901 770.44309zM702.944739 473.793145c-150.320376 0-228.908564-57.815529-228.908564-114.91476L474.036175 51.995603c0-57.099231 78.690517-114.91476 228.908564-114.91476 149.194764 0 227.680624 56.996902 228.908564 113.686819l0.102328 0L931.955631 358.878385C931.853303 415.977616 853.265114 473.793145 702.944739 473.793145zM702.944739 413.317078c111.12861 0 168.432497-38.168482 168.432497-54.438693 0-16.270211-57.303887-54.438693-168.432497-54.438693S534.512241 342.608174 534.512241 358.878385C534.512241 375.148596 591.816129 413.317078 702.944739 413.317078zM702.944739-2.44309c-111.12861 0-168.432497 38.168482-168.432497 54.438693l0 73.267113c38.373139-20.874988 94.756071-34.791646 168.432497-34.791646s129.95703 13.916658 168.432497 34.791646L871.377236 51.995603C871.377236 35.725392 814.073349-2.44309 702.944739-2.44309zM702.944739 151.049465c-111.12861 0-168.432497 38.168482-168.432497 54.438693l0 73.267113c38.373139-20.874988 94.756071-34.791646 168.432497-34.791646s129.95703 13.916658 168.432497 34.791646l0-73.267113C871.377236 189.217947 814.073349 151.049465 702.944739 151.049465z"  horiz-adv-x="1024" />

    
    <glyph glyph-name="qianbao" unicode="&#58909;" d="M837.174987 743.371834 183.77249 743.371834c-66.052368 0-119.79027-53.748135-119.79027-119.79027L63.98222 144.41946c0-66.042135 53.737902-119.79027 119.79027-119.79027l653.402497 0c66.052368 0 119.79027 53.748135 119.79027 119.79027L956.965258 623.581564C956.965258 689.623699 903.227356 743.371834 837.174987 743.371834zM891.62511 307.769828 652.043546 307.769828c-42.028209 0-76.230172 34.201963-76.230172 76.230172s34.201963 76.230172 76.230172 76.230172l239.581564 0L891.62511 307.769828zM891.62511 525.570319 652.043546 525.570319c-78.059843 0-141.570319-63.511499-141.570319-141.570319s63.511499-141.570319 141.570319-141.570319l239.581564 0 0-98.010221c0-30.033014-24.428366-54.450123-54.450123-54.450123L183.77249 89.969337c-30.021757 0-54.450123 24.417109-54.450123 54.450123L129.322367 623.581564c0 30.033014 24.428366 54.450123 54.450123 54.450123l653.402497 0c30.021757 0 54.450123-24.417109 54.450123-54.450123L891.62511 525.570319zM619.373473 384c0-24.057929 19.50217-43.560098 43.560098-43.560098 24.057929 0 43.560098 19.50217 43.560098 43.560098s-19.50217 43.560098-43.560098 43.560098C638.876666 427.560098 619.373473 408.057929 619.373473 384z"  horiz-adv-x="1024" />

    
    <glyph glyph-name="yiduxinxi" unicode="&#58936;" d="M511.999488 837.81481 62.771151 557.058474c0-64.047712 0-50.284243 0-112.302739l0-393.059074c0-62.018495 50.286304-112.301715 112.30734-112.301715l673.843018 0c62.021037 0 112.306317 50.28322 112.306317 112.301715L961.227826 444.756759c0 62.018495 0 50.886971 0 112.302739L511.999488 837.81481zM118.925333 51.697685 118.925333 462.30339l254.52817-174.97922L121.585014 35.466002C120.022362 40.621419 118.925333 45.9948 118.925333 51.697685zM848.921509-4.453173 175.078491-4.453173c-4.305226 0-8.444669 0.576121-12.475637 1.479701l257.927732 257.944793 91.468902-62.896492 91.468902 62.896492 257.927732-257.944793C857.366178-3.878075 853.225711-4.453173 848.921509-4.453173zM905.074667 51.697685c0-5.702885-1.096006-11.076266-2.659682-16.23066L650.546498 287.32417l254.52817 174.97922L905.074667 51.697685zM511.999488 257.877511 118.925333 528.983045l392.526665 243.399519 393.62267-243.399519L511.999488 257.877511z"  horiz-adv-x="1024" />

    
    <glyph glyph-name="webicon03" unicode="&#58989;" d="M971.65604662 703.02290235L52.34395338 703.02290235c-28.19223752 0-51.07289408 22.88065654-51.07289407 51.07289404s22.88065654 51.07289408 51.07289407 51.07289409l919.31209324 0c28.24331042 0 51.07289408-22.88065654 51.07289407-51.07289409S999.89935703 703.02290235 971.65604662 703.02290235zM971.65604662 345.51264385L52.34395338 345.51264385c-28.19223752 0-51.07289408 22.88065654-51.07289407 51.07289407s22.88065654 51.07289408 51.07289407 51.07289408l919.31209324 0c28.24331042 0 51.07289408-22.88065654 51.07289407-51.07289408S999.89935703 345.51264385 971.65604662 345.51264385zM971.65604662-11.997614640000052L52.34395338-11.997614640000052c-28.19223752 0-51.07289408 22.88065654-51.07289407 51.07289409s22.88065654 51.07289408 51.07289407 51.07289404l919.31209324 0c28.24331042 0 51.07289408-22.88065654 51.07289407-51.07289404S999.89935703-11.997614640000052 971.65604662-11.997614640000052z"  horiz-adv-x="1024" />

    
    <glyph glyph-name="fukuanfangshi" unicode="&#58921;" d="M877.166305 716.923462 435.369204 716.923462 146.778436 716.923462c-44.060495 0-79.917144-39.660278-79.917144-88.447425l0-488.953098c0-48.677653 35.856649-88.446401 79.917144-88.446401l274.955212 0 455.43368 0c44.113707 0 79.970356 39.659255 79.970356 88.446401L957.137685 571.540304l0 7.225565 0 49.655933C957.137685 677.154713 921.281035 716.923462 877.166305 716.923462zM146.778436 661.290397l274.955212 0 455.43368 0c13.201673 0 24.339338-15.102976 24.339338-32.868595l0-49.655933 0-7.225565 0-19.612687L122.439098 551.927617l0 76.54842C122.439098 646.295891 133.576763 661.290397 146.778436 661.290397zM901.506666 496.295576l0-55.632041L122.439098 440.663534l0 55.632041L901.506666 496.295576zM877.166305 106.70858 435.369204 106.70858 146.778436 106.70858c-13.20065 0-24.338315 15.102976-24.338315 32.813337L122.440122 385.032516l779.066545 0 0-245.509577C901.506666 121.703085 890.369002 106.70858 877.166305 106.70858zM818.166563 218.135368 651.269415 218.135368c-15.374152 0-27.816532-12.440333-27.816532-27.816532 0-15.374152 12.441357-27.815509 27.816532-27.815509l166.897148 0c15.374152 0 27.815509 12.440333 27.815509 27.815509C845.982072 205.695035 833.541739 218.135368 818.166563 218.135368z"  horiz-adv-x="1024" />

    
    <glyph glyph-name="icon_vip_01" unicode="&#58902;" d="M0.568889 575.658667l3.299555 9.272889a63.886222 63.886222 0 1 0 109.169778-61.326223c-1.991111-2.218667-3.982222-4.380444-6.200889-7.054222 47.445333-29.127111 94.606222-57.799111 141.653334-86.641778 17.806222-11.036444 35.669333-22.072889 53.532444-32.654222 10.126222-5.973333 18.090667-4.209778 23.608889 5.688889 54.044444 98.417778 108.088889 196.949333 162.531556 296.391111-23.608889 11.946667-38.798222 30.264889-40.163556 57.400889a63.943111 63.943111 0 0 0 113.152 43.235556c26.908444-33.109333 17.237333-71.68-25.6-100.807112 13.937778-25.6 28.046222-51.2 42.097778-76.8l117.589333-214.072888c9.102222-16.554667 14.791111-18.090667 30.890667-8.419556 60.643556 37.091556 121.287111 74.353778 181.930666 111.388444 2.844444 1.763556 5.518222 3.527111 8.817778 5.518223-12.515556 12.572444-20.48 26.737778-21.390222 44.088889a63.544889 63.544889 0 0 0 52.280889 66.616888 63.715556 63.715556 0 0 0 72.988444-44.771555c0.682667-2.446222 1.763556-5.063111 2.673778-7.509333v-22.016c-10.410667-33.109333-31.573333-52.337778-67.982222-52.508445-1.308444-3.754667-2.616889-7.509333-3.697778-11.264l-106.552889-365.397333c-4.608-15.928889-10.126222-20.081778-26.225778-20.081778H205.880889c-17.180444 0-22.471111 3.982222-27.136 20.081778-28.899556 98.759111-57.571556 197.802667-86.471111 296.618666-7.68 26.680889-15.644444 53.361778-23.552 80.213334-27.136 0-47.672889 10.808889-60.416 34.247111-3.128889 5.688889-5.12 12.117333-7.509334 18.318222C0.568889 561.095111 0.568889 568.32 0.568889 575.658667z m511.203555-535.210667h286.435556c25.6 0 45.909333-18.090667 48.753778-42.382222a47.786667 47.786667 0 0 0-37.944889-52.280889 44.771556 44.771556 0 0 0-10.808889-1.080889H225.052444a47.843556 47.843556 0 0 0-46.535111 32.654222c-6.599111 19.626667-0.455111 41.870222 17.009778 53.134222 9.045333 5.688889 20.935111 9.671111 31.516445 9.671112 95.004444 0.682667 189.895111 0.284444 284.728888 0.284444z"  horiz-adv-x="1039" />

    
    <glyph glyph-name="gou" unicode="&#59085;" d="M511.19616 830.50496c-247.2704 0-447.72352-200.45312-447.72352-447.72352 0-247.27552 200.45312-447.72864 447.72352-447.72864 247.27552 0 447.73376 200.45312 447.73376 447.72864 0 247.2704-200.45312 447.72352-447.73376 447.72352M768.00512 498.91328l-289.56672-289.57184-0.00512-0.00512a40.5504 40.5504 0 0 0-49.24928-6.26176 40.7808 40.7808 0 0 0-8.05888 6.26176l-0.00512 0.00512-166.72256 166.72256A40.52992 40.52992 0 0 0 311.7056 433.37728l138.07104-138.07104 260.9152 260.92032a40.52992 40.52992 0 0 0 57.31328-57.31328"  horiz-adv-x="1024" />

    
    <glyph glyph-name="yonghu" unicode="&#58894;" d="M512-66c-248.4 0-450 201.6-450 450s201.6 450 450 450 450-201.6 450-450-201.6-450-450-450zM512 783.6c-219.6 0-399.6-180-399.6-399.6s180-399.6 399.6-399.6 399.6 180 399.6 399.6-180 399.6-399.6 399.6zM249.2 60l-43.2 18c14.4 32.4 54 50.4 100.8 72s100.8 46.8 100.8 75.6v39.6c-14.4 14.4-43.2 43.2-46.8 86.4-14.4 10.8-36 36-36 68.4 0 18 7.2 32.4 14.4 43.2-3.6 21.6-10.8 61.2-10.8 93.6 0 104.4 72 169.2 183.6 169.2 32.4 0 72-7.2 93.6-32.4 50.4-7.2 90-68.4 90-140.4 0-43.2-7.2-82.8-14.4-100.8 3.6-7.2 10.8-21.6 10.8-36 0-36-18-57.6-32.4-68.4-3.6-43.2-28.8-72-43.2-82.8v-39.6c0-25.2 46.8-43.2 90-57.6 50.4-18 104.4-39.6 118.8-82.8l-43.2-18c-7.2 21.6-50.4 39.6-90 54-57.6 21.6-122.4 46.8-122.4 104.4v68.4l10.8 7.2s32.4 21.6 32.4 64.8v18l14.4 7.2c3.6 0 18 10.8 18 32.4 0 7.2-3.6 14.4-7.2 18l-10.8 10.8 3.6 14.4s14.4 43.2 14.4 97.2c0 46.8-25.2 90-54 90h-14.4l-7.2 10.8c-3.6 7.2-28.8 18-57.6 18-82.8 0-133.2-46.8-133.2-122.4 0-36 10.8-93.6 14.4-93.6l3.6-14.4-14.4-14.4s-7.2-7.2-7.2-18c0-14.4 18-32.4 25.2-36l10.8-7.2v-10.8c0-39.6 36-64.8 36-64.8l10.8-7.2v-68.4c0-61.2-68.4-93.6-129.6-122.4-32.4-14.4-72-32.4-79.2-43.2z"  horiz-adv-x="1024" />

    
    <glyph glyph-name="shijian" unicode="&#59014;" d="M552.857 35.134c-8.272 8.272-24.817 8.272-33.089 8.272-16.545 0-24.817 0-33.089-8.272l-231.625-124.085c-41.362-24.817-66.178 0-57.906 41.362l41.362 256.442c0 24.817-8.272 49.634-24.817 66.179l-190.264 181.99c-33.089 33.089-24.817 66.178 24.817 66.178l256.442 41.362c24.817 0 49.634 24.817 57.906 41.362l115.812 231.624c8.272 16.545 24.817 33.089 33.089 33.089s24.817-8.272 33.089-33.089l115.812-231.625c8.272-16.545 33.089-41.362 57.906-41.362l256.443-41.361c49.634-8.272 57.906-41.362 24.817-66.179l-190.264-181.99c-16.545-16.545-24.817-49.634-24.817-66.179l41.362-256.442c8.272-41.362-16.545-66.178-57.906-41.362l-215.080 124.086zM519.768 43.406c-16.545 0-24.817 0-33.089-8.272l-231.625-124.085c-41.362-24.817-66.178 0-57.906 41.362l41.362 256.442c0 24.817-8.272 49.634-24.817 66.179l-190.264 181.99c-33.089 33.089-24.817 66.178 24.817 66.178l256.442 41.362c24.817 0 49.634 24.817 57.906 41.362l115.812 231.624c8.272 16.545 24.817 33.089 33.089 33.089l8.273-827.231z"  horiz-adv-x="1024" />

    
    <glyph glyph-name="shanchupxcuPXyuanjiaoPX" unicode="&#58887;" d="M862.662379 593.080386v-592.66881c0-19.755627-13.170418-32.926045-32.926045-32.926045H269.993569c-19.755627 0-32.926045 13.170418-32.926045 32.926045v592.66881H171.215434v-592.66881c0-55.974277 42.803859-98.778135 98.778135-98.778135h559.742765c55.974277 0 98.778135 42.803859 98.778135 98.778135v592.66881h-65.85209zM398.405145 593.080386h65.85209v-460.96463h-65.85209zM632.180064 593.080386h65.85209v-460.96463h-65.85209zM763.884244 790.636656l-98.778135 98.778135h-230.482315l-98.778135-98.778135H134.996785v-65.85209h230.482315l102.070739 98.778135h164.630225l98.778135-98.778135h230.482315v65.85209z"  horiz-adv-x="1024" />

    
    <glyph glyph-name="ruler" unicode="&#59240;" d="M432.1676444 541.37384174l-17.39482681 0-89.37829715 0-33.23401871 0-60.38691911 0-39.95153314-0.07071068-127.84490604 0L63.97714344 141.36353562l896.04571312 0 0 399.93959544L432.1676444 541.37384174z m-318.19805153-350.01785669l0 299.95469658 77.78174593 0 0.07071068-149.97734829 40.02224381 0L231.84429329 491.38139231l60.38691912 0 0-99.98489886 40.02224381 0 0 99.98489886 59.96265505 0 0-99.98489886 40.02224381 0 0 99.98489886 59.96265505 0L492.20101013 341.33333333999997l40.02224381 0 0 150.04805897 59.96265505 0 0-99.98489886 40.02224381 0 0 99.98489886 59.96265505 0 0-99.98489886 40.02224381 0 0 99.98489886 59.96265505 0 0-150.04805897 40.02224381 0 0 150.04805897 77.78174593 0 0.07071068-300.02540726-796.06081426 0z"  horiz-adv-x="1024" />

    
    <glyph glyph-name="duankai" unicode="&#58963;" d="M511.908777 563.663719c-8.36457 0-15.145504 5.56219-15.145504 12.423399v111.467598c0 6.86121 6.780933 12.4234 15.145504 12.4234s15.145504-5.56219 15.145503-12.4234v-111.467598c0.001216-6.86121-6.779717-12.4234-15.145503-12.423399zM433.993115 572.795781c-7.244348-4.182893-15.8984-2.756161-19.328396 3.185518l-55.733799 96.533733c-3.431213 5.941679-0.339351 14.149345 6.904997 18.332238 7.244348 4.182893 15.8984 2.756161 19.328397-3.185518l55.733799-96.533733c3.431213-5.942895 0.339351-14.150561-6.904998-18.332238zM590.250147 572.795781c7.244348-4.182893 15.8984-2.756161 19.328397 3.185518l55.733798 96.533733c3.431213 5.941679 0.339351 14.149345-6.904997 18.332238-7.244348 4.182893-15.8984 2.756161-19.328396-3.185518l-55.733799-96.533733c-3.431213-5.942895-0.339351-14.150561 6.904997-18.332238zM433.993115 200.664239c-7.244348 4.182893-15.8984 2.756161-19.328396-3.186735l-55.733799-96.533732c-3.431213-5.941679-0.339351-14.149345 6.904997-18.332238 7.244348-4.182893 15.8984-2.756161 19.328397 3.186734l55.733799 96.533733c3.431213 5.941679 0.339351 14.149345-6.904998 18.332238zM590.250147 200.664239c7.244348 4.182893 15.8984 2.756161 19.328397-3.186735l55.733798-96.533732c3.431213-5.941679 0.339351-14.149345-6.904997-18.332238-7.244348-4.182893-15.8984-2.756161-19.328396 3.186734l-55.733799 96.533733c-3.431213 5.941679-0.339351 14.149345 6.904997 18.332238zM511.908777 66.748407c-8.36457 0-15.145504 5.56219-15.145504 12.423399v111.467598c0 6.86121 6.780933 12.4234 15.145504 12.4234s15.145504-5.56219 15.145503-12.4234v-111.467598c0.001216-6.86121-6.779717-12.4234-15.145503-12.423399zM429.582772 253.775671H299.864429c-73.192726 0-132.73966 59.546934-132.73966 132.73966s59.546934 132.73966 132.73966 132.73966h125.428414v-53.431323H299.864429c-43.731243 0-79.307121-35.575878-79.307121-79.307121s35.575878-79.307121 79.307121-79.307121H429.582772v-53.433755zM723.953125 253.775671H597.354619v53.432539h126.597289c43.726378 0 79.302256 35.575878 79.302256 79.307121s-35.575878 79.307121-79.302256 79.307121H597.344888v53.431322h126.608237c73.186644 0 132.733578-59.546934 132.733578-132.739659S797.139769 253.775671 723.953125 253.775671z"  horiz-adv-x="1024" />

    
    <glyph glyph-name="fanhuidingbu" unicode="&#58882;" d="M137.6 198.4l416 416c51.2 51.2-28.8 134.4-80 80l-416-416c-54.4-51.2 25.6-134.4 80-80zM969.6 278.4l-416 416c-51.2 51.2-134.4-28.8-80-80l416-416c51.2-54.4 131.2 28.8 80 80z"  horiz-adv-x="1024" />

    
    <glyph glyph-name="yonghu-tianchong" unicode="&#58992;" d="M593.066667 396.8C695.466667 430.933333 768 526.933333 768 640c0 140.8-115.2 256-256 256S256 780.8 256 640c0-113.066667 72.533333-209.066667 174.933333-243.2C249.6 360.53333299999997 85.333333 206.93333299999995 85.333333 21.33333300000004c0-83.2 66.133333-149.333333 149.333334-149.333333h554.666666c83.2 0 149.333333 66.133333 149.333334 149.333333 0 185.6-164.266667 339.2-345.6 375.466667z"  horiz-adv-x="1024" />

    
    <glyph glyph-name="zhanghuxinxi" unicode="&#58885;" d="M960 832H64C28.7 832 0 803.3 0 768v-704c0-35.3 28.7-64 64-64h352c17.7 0 32 14.3 32 32s-14.3 32-32 32H64V768h896v-288c0-17.7 14.3-32 32-32s32 14.3 32 32V768c0 35.3-28.7 64-64 64zM858.3 164.89999999999998c35.4 29.4 57.9 73.7 57.9 123.1 0 88.2-71.8 160-160 160s-160-71.8-160-160c0-49.5 22.6-93.7 57.9-123.1-20.5-10.5-39.5-24.3-56.3-41.1-42.3-42.3-65.6-98.6-65.6-158.4 0-17.7 14.3-32 32-32s32 14.3 32 32c0 88.2 71.8 160 160 160s160-71.8 160-160c0-17.7 14.3-32 32-32s32 14.3 32 32c0 59.8-23.3 116.1-65.6 158.4-16.8 16.8-35.8 30.6-56.3 41.1zM756.2 384c52.9 0 96-43.1 96-96s-43.1-96-96-96-96 43.1-96 96 43.1 96 96 96zM544 576H192c-17.7 0-32-14.3-32-32s14.3-32 32-32h352c17.7 0 32 14.3 32 32s-14.3 32-32 32z m-64-128H192c-17.7 0-32-14.3-32-32s14.3-32 32-32h288c17.7 0 32 14.3 32 32s-14.3 32-32 32z m-64-128H192c-17.7 0-32-14.3-32-32s14.3-32 32-32h224c17.7 0 32 14.3 32 32s-14.3 32-32 32z"  horiz-adv-x="1024" />

    
    <glyph glyph-name="tuichudenglu" unicode="&#60050;" d="M1009.758136 410.819832l-204.25601 196.648752c-16.344247 15.739473-40.853453 15.739473-57.191561 0-16.344247-15.72924-16.344247-39.32975 0-55.068199l134.807289-129.780809H490.93473c-24.51023 0-40.84936-15.728216-40.84936-39.327704 0-23.605627 16.338107-39.32975 40.84936-39.32975h392.183124l-134.802172-129.785925c-16.338107-15.739473-16.338107-39.341007 0-55.069224 8.172123-7.872295 16.343223-11.799744 28.592198-11.799743 12.261255 0 20.433378 3.938706 28.599362 11.799743l204.260104 200.577225s0 3.938706 4.094248 3.938706c12.249999 11.800767 12.249999 35.390022-4.094248 47.190788l-0.00921 0.00614z m0 0M899.455961 107.978503c-24.51023 0-40.854477-15.733333-40.854477-39.327704v-78.663594c0-23.594371-16.33913-39.327704-40.84936-39.327704H123.266953c-24.51023 0-40.854477 15.733333-40.854477 39.327704V776.595516c0 23.589254 16.344247 39.327704 40.854477 39.327704h694.485171c24.51023 0 40.84936-15.739473 40.84936-39.327704v-78.66871c0-23.589254 16.344247-39.327704 40.854477-39.327704 24.509207 0 40.847314 15.739473 40.847313 39.327704v78.66871c0 66.856687-53.097312 117.986181-122.552173 117.986182H123.266953c-69.443605 0-122.55729-51.129494-122.55729-117.986182v-786.608311c0-66.856687 53.114708-117.986181 122.55729-117.986182h694.485171c69.454862 0 122.552174 51.128471 122.552174 117.986182v78.663594c0 23.594371-16.33913 39.327704-40.848337 39.327704z m0 0"  horiz-adv-x="1024" />

    
    <glyph glyph-name="kefu" unicode="&#58899;" d="M853.333333 494.933333c-2.133333 89.6-36.266667 172.8-100.266666 234.666667-64 64-149.333333 100.266667-241.066667 100.266667-183.466667 0-332.8-147.2-337.066667-332.8-49.066667-17.066667-83.2-64-83.2-117.333334v-106.666666c0-68.266667 55.466667-125.866667 125.866667-125.866667h34.133333c14.933333 0 25.6 12.8 25.6 25.6V477.866667c0 14.933333-12.8 25.6-25.6 25.6h-23.466666c8.533333 151.466667 132.266667 270.933333 285.866666 270.933333 76.8 0 149.333333-29.866667 202.666667-83.2 51.2-51.2 78.933333-117.333333 83.2-189.866667h-25.6c-14.933333 0-25.6-12.8-25.6-25.6v-302.933333c0-14.933333 12.8-25.6 25.6-25.6h8.533333c-27.733333-78.933333-87.466667-123.733333-189.866666-136.533333-2.133333 8.533333-10.666667 17.066667-21.333334 17.066666h-96c-12.8 0-21.333333-10.666667-21.333333-21.333333v-46.933333c0-12.8 10.666667-21.333333 21.333333-21.333334h96c10.666667 0 19.2 8.533333 21.333334 19.2 134.4 17.066667 215.466667 81.066667 247.466666 194.133334 53.333333 14.933333 93.866667 61.866667 93.866667 119.466666v106.666667c-2.133333 53.333333-34.133333 98.133333-81.066667 117.333333zM224 202.666667h-8.533333c-40.533333 0-72.533333 32-72.533334 72.533333v106.666667c0 36.266667 25.6 64 59.733334 70.4h19.2v-249.6z m654.933333 70.4c0-36.266667-27.733333-66.133333-64-70.4h-17.066666V450.133333h8.533333c4.266667 0 8.533333 0 14.933333-2.133333 34.133333-6.4 57.6-36.266667 57.6-70.4v-104.533333z"  horiz-adv-x="1024" />

    
    <glyph glyph-name="sousuo" unicode="&#58934;" d="M1015.4756961-22.93025116000001l-235.90593311 235.90593306c54.25836461 72.45682234 83.57810203 160.41603451 83.57810201 252.08233998 0 232.53584835-189.39876342 421.93461178-421.93461181 421.93461181s-421.93461178-189.39876342-421.93461178-421.93461181 189.39876342-421.93461178 421.93461178-421.93461179c99.75450887 0 193.44286513 34.03785604 268.5957553 96.38442413l233.88388221-233.88388228 71.7828054 71.4457969zM441.21325319 127.03852060999998c-186.36568714 0-337.68249283 151.65381413-337.68249282 337.68249277s151.65381413 337.68249283 337.68249282 337.68249285c186.36568714 0 337.68249283-151.65381413 337.6824928-337.68249285 0-87.28519527-33.02683065-169.85227185-93.01433929-232.87285679-64.36861889-67.40169518-151.31680569-104.80963601-244.66815351-104.80963598z"  horiz-adv-x="1024" />

    
    <glyph glyph-name="fanhui" unicode="&#58889;" d="M329.728 343.53152a40.5248 40.5248 0 0 0-28.672 11.84256c-15.79008 15.7952-15.79008 41.45664 0 57.24672l364.63104 364.6208c15.79008 15.79008 41.45152 15.79008 57.25184 0 15.79008-15.79008 15.79008-41.45152 0-57.2416l-364.63616-364.63104a40.31488 40.31488 0 0 0-28.57472-11.83744z m0 0M694.26176-21.08928a40.4992 40.4992 0 0 0-28.66176 11.83744L301.06112 355.3792c-15.79008 15.7952-15.79008 41.45664 0 57.24672 15.79008 15.7952 41.46176 15.7952 57.24672 0l364.63616-364.62592a40.51968 40.51968 0 0 0 0-57.25184 40.3712 40.3712 0 0 0-28.68224-11.83744z m0 0"  horiz-adv-x="1024" />

    
    <glyph glyph-name="ic-facebook-" unicode="&#58900;" d="M301.97333333 587.7599662499999h100.51199531V639.31196344q0 86.39999531 18.38399907 128.78399344t67.67999625 69.16799625Q537.84532114 863.99995219 613.25331739 863.99995219A504.52797469 504.52797469 0 0 0 764.69330989 840.81595313l-24.47999812-126.19199344A358.51198219 358.51198219 0 0 1 657.07731552 724.79995875q-39.31199812 0-56.39999719-18.33599906t-17.08799906-70.51199625v-48.19199719h135.35999344v-142.27199344h-135.35999344V-96H402.48532864V445.48797281H301.97333333z"  horiz-adv-x="1024" />

    
    <glyph glyph-name="mn_shangchuantupian" unicode="&#58895;" d="M480 544c-105.888 0-192-86.112-192-192s86.112-192 192-192 192 86.112 192 192-86.112 192-192 192z m0-320c-70.592 0-128 57.408-128 128s57.408 128 128 128 128-57.408 128-128-57.408-128-128-128zM576 64H160c-17.632 0-32 14.336-32 32V608c0 17.632 14.368 32 32 32h96c17.664 0 32 14.336 32 32s-14.336 32-32 32h-96c-52.928 0-96-43.072-96-96v-512c0-52.928 43.072-96 96-96h416c17.696 0 32 14.304 32 32s-14.304 32-32 32zM512 640h320c17.664 0 32-14.368 32-32v-256c0-17.696 14.304-32 32-32s32 14.304 32 32V608c0 52.928-43.072 96-96 96H512c-17.664 0-32-14.336-32-32s14.336-32 32-32zM736 560a1.5 1.5 0 1 1 96 0 1.5 1.5 0 1 1-96 0zM320 736h128c17.696 0 32 14.304 32 32s-14.304 32-32 32H320c-17.696 0-32-14.304-32-32s14.304-32 32-32zM960 128h-96v96c0 17.696-14.304 32-32 32s-32-14.304-32-32v-96h-96c-17.696 0-32-14.304-32-32s14.304-32 32-32h96v-96c0-17.696 14.304-32 32-32s32 14.304 32 32v96h96c17.696 0 32 14.304 32 32s-14.304 32-32 32z"  horiz-adv-x="1024" />

    
    <glyph glyph-name="pinglun" unicode="&#58952;" d="M816 88h-144c-4.8 0-8-1.6-11.2-4.8l-80-80c-36.8-36.8-97.6-36.8-136 0l-80 80c-3.2 3.2-6.4 4.8-11.2 4.8h-144c-70.4 0-128 57.6-128 128v448c0 70.4 57.6 128 128 128h608c70.4 0 128-57.6 128-128v-448c-1.6-70.4-59.2-128-129.6-128z m0 64c35.2 0 64 28.8 64 64v448c0 35.2-28.8 64-64 64H208c-35.2 0-64-28.8-64-64v-448c0-35.2 28.8-64 64-64h144c20.8 0 41.6-8 56-24l80-80c12.8-12.8 32-12.8 44.8 0l80 80c14.4 14.4 35.2 24 56 24H816z m-496 336c27.2 0 48-20.8 48-48v-32c0-27.2-20.8-48-48-48s-48 20.8-48 48v32c0 27.2 20.8 48 48 48z m192 0c27.2 0 48-20.8 48-48v-32c0-27.2-20.8-48-48-48s-48 20.8-48 48v32c0 27.2 20.8 48 48 48z m192 0c27.2 0 48-20.8 48-48v-32c0-27.2-20.8-48-48-48s-48 20.8-48 48v32c0 27.2 20.8 48 48 48z"  horiz-adv-x="1024" />

    
    <glyph glyph-name="tishi" unicode="&#59049;" d="M512-62.709C265.687-62.709 65.291 137.687 65.291 384S265.686 830.71 512 830.71 958.709 630.314 958.709 384 758.313-62.709 512-62.709z m0 829.185c-210.893 0-382.476-171.583-382.476-382.476S301.107 1.525 512 1.525s382.476 171.583 382.476 382.476S722.892 766.476 512 766.476zM612.659 247.833l-2.447 3.53-7.681 3.422H599c-4.104 0-8.595-1.084-22.64-7.975l-22.5-15.19c-6.164-3.902-12.993-7.186-20.348-9.757-7.742-2.74-15.919-4.909-24.266-6.441-5.775-1.069-10.39-1.828-15.392-1.564-6.984 0.836-8.951 3.577-9.663 4.599-2.091 2.926-2.819 8.408-2.076 15.454 1.1 10.329 4.042 24.498 8.734 42.12 4.831 18.04 9.54 33.712 14.045 46.967 4.522 13.24 9.848 27.068 15.997 41.578 6.054 14.34 10.917 24.73 14.448 30.924 3.236 5.73 8.098 12.078 14.494 18.97 6.055 6.613 20.239 22.097 12.062 36.98-4.444 8.02-12.249 12.837-24.498 13.611-5.977 0-12.59-1.3-20.192-3.949-7.929-2.772-12.962-4.878-14.928-5.992-2.029-1.1-5.172-3.128-19.032-14.479-13.766-11.227-17.653-15.733-19.698-19.65-1.997-3.779-3.545-9.106-4.691-22.795-0.434-5.095-2.385-15.238-9.431-35.151l-19.96-63.94-16.075-44.117c-4.15-15.067-5.714-28.122-4.785-39.86 0.867-11.413 3.16-22.067 6.813-31.621 4.026-10.608 9.616-19.264 16.585-25.706 7.634-7.092 17.065-11.506 27.47-13.007 2.834-0.51 5.962-0.79 9.37-0.79 8.562 0 18.535 1.72 30.521 5.28 14.866 4.43 27.13 8.889 37.429 13.612 10.344 4.661 20.069 10.097 28.973 16.151a759.805 759.805 0 0 1 24.977 17.948c10.98 8.254 17.933 16.708 21.324 25.938 2.851 7.928 6.088 16.94 0.59 24.9zM483.836 519.775c5.162-4.316 11.573-6.676 19.228-7.12 8.993-0.891 21.502 4.494 37.481 16.202 15.936 11.707 24.396 21.01 25.286 28 0.89 6.988-1.47 17.76-7.078 32.405-5.652 14.6-10.906 23.95-15.847 28-4.985 4.05-10.816 6.277-17.538 6.722-13.087 0.445-24.751-5.521-35.122-17.85-10.328-12.376-16.96-22.302-19.898-29.692-2.938-7.433-4.363-12.731-4.363-15.847-0.445-5.43 1.113-12.508 4.72-21.277 3.603-8.768 7.966-15.313 13.13-19.543z"  horiz-adv-x="1024" />

    
    <glyph glyph-name="xiugaimima" unicode="&#59216;" d="M516.597476-127.886222A516.864 516.864 0 0 0 207.349476-25.6c-110.648889 81.948444-182.471111 201.699556-201.955556 337.009778a505.116444 505.116444 0 0 0 98.076444 379.676444c171.150222 225.962667 496.071111 271.957333 724.423112 102.968889a513.052444 513.052444 0 0 0 192.512-288.056889c2.332444-9.415111 0.824889-19.370667-4.181334-27.648a37.205333 37.205333 0 0 0-67.640889 10.439111 438.954667 438.954667 0 0 1-165.034666 246.670223c-195.697778 145.038222-474.225778 105.500444-620.999111-88.177778a431.985778 431.985778 0 0 1-83.996445-325.319111 434.346667 434.346667 0 0 1 173.255111-288.739556c195.896889-145.152 474.453333-105.642667 621.169778 88.092445a432.867556 432.867556 0 0 1 78.165333 168.874666 36.835556 36.835556 0 0 0 43.861334 27.932445 36.408889 36.408889 0 0 0 28.387555-42.837334l-0.170666-0.597333a503.438222 503.438222 0 0 0-91.278223-197.347556 514.56 514.56 0 0 0-340.878222-199.708444c-24.718222-3.783111-49.720889-5.518222-74.467555-5.518222zM738.293476 374.186667c63.658667 65.080889 63.658667 166.371556-2.474667 229.176889-31.744 31.260444-73.272889 48.184889-114.858667 48.184888-41.557333 0-83.114667-16.924444-115.029333-48.184888-58.624-55.409778-70.513778-143.672889-21.447111-206.506667l-69.091556-68.835556-89.969778-85.504-76.401777-72.931555c-9.784889-9.699556-15.36-35.128889-5.518223-44.856889 10.979556-13.738667 35.100444-8.846222 44.913778 0.853333l51.626667 48.924445 52.366222-44.686223c9.841778-9.699556 30.151111-5.774222 39.936 3.754667 9.813333 9.557333 7.623111 28.216889-2.190222 37.916445l-46.506667 45.880888 45.937778 45.425778 71.253333-67.584c9.784889-9.728 30.151111-5.745778 39.964445 3.783111 9.784889 9.500444 9.016889 28.074667-0.739556 37.745778l-68.494222 67.527111 53.845333 53.105778a165.774222 165.774222 0 0 1 212.878223 16.782222v0.028445z m-52.224 50.346666c-21.959111-21.674667-33.479111-30.378667-62.919112-30.378666-29.411556 0-46.819556 2.304-68.750222 24.149333-38.627556 43.975111-40.561778 93.724444-2.929778 139.349333 42.24 34.986667 93.326222 31.971556 141.909334-0.739555 0 0 44.600889-68.408889-7.338667-132.323556v-0.056889z"  horiz-adv-x="1024" />

    
    <glyph glyph-name="huoche" unicode="&#58896;" d="M0 403.2h1024v-64H0zM752-3.2c-70.4 0-128 57.6-128 128s57.6 128 128 128 128-57.6 128-128-54.4-128-128-128z m0 192c-35.2 0-64-28.8-64-64s28.8-64 64-64 64 28.8 64 64-28.8 64-64 64zM224 0c-70.4 0-128 57.6-128 128s57.6 128 128 128 128-57.6 128-128-57.6-128-128-128z m0 192c-35.2 0-64-28.8-64-64s28.8-64 64-64 64 28.8 64 64-28.8 64-64 64zM995.2 531.2l-153.6 153.6c-19.2 19.2-41.6 28.8-67.2 28.8h-121.6v-64h121.6c9.6 0 16-3.2 22.4-9.6l153.6-153.6c6.4-6.4 9.6-12.8 9.6-22.4V192c0-19.2-12.8-32-32-32h-99.2v-64H928c54.4 0 96 41.6 96 96v272c0 22.4-9.6 48-28.8 67.2zM150.4 156.8H64v246.4H0v-310.4h150.4zM294.4 156.8h387.2v-64H294.4zM611.2 800h-268.8c-19.2 0-32-12.8-32-32s12.8-32 32-32h268.8c19.2 0 32-12.8 32-32v-300.8H64V704c0 19.2 12.8 32 32 32h51.2c19.2 0 32 12.8 32 32s-12.8 32-32 32H96C41.6 800 0 758.4 0 704v-364.8h707.2V704c0 54.4-44.8 96-96 96z"  horiz-adv-x="1024" />

    
    <glyph glyph-name="guanbi" unicode="&#58946;" d="M963.328-106.818954a37.628062 37.628062 0 0 0-26.596431 11.0336L30.814523 810.131692c-14.686523 14.686523-14.686523 38.5024 0 53.190893 14.686523 14.686523 38.5024 14.686523 53.190892 0l905.991877-905.999754a37.696985 37.696985 0 0 0 7.936-40.912739 37.691077 37.691077 0 0 0-34.605292-23.229046M57.407015-106.818954a37.5552 37.5552 0 0 0-34.857353 23.181785 37.537477 37.537477 0 0 0 8.264861 41.034831L936.816246 863.320615c14.865723 13.520738 37.738338 12.973292 51.936492-1.248492 14.202092-14.219815 14.716062-37.0944 1.169724-51.9424L84.005415-95.787323a37.578831 37.578831 0 0 0-26.5984-11.031631"  horiz-adv-x="1024" />

    
    <glyph glyph-name="shanjian" unicode="&#58898;" d="M880.9 427.5H145.2c-24.7 0-44.7-20-44.7-44.7v-0.4c0-24.7 20-44.7 44.7-44.7h735.7c24.7 0 44.7 20 44.7 44.7v0.4c-0.1 24.7-20.1 44.7-44.7 44.7zM1508.9-182.4z"  horiz-adv-x="1024" />

    
    <glyph glyph-name="pinterest" unicode="&#61251;" d="M319.09137031 358.87729031000003a95.18278875 95.18278875 0 0 0-3.58449187 8.86435125c-14.53172344 41.65760719-106.56597281 336.7969125 144.05781937 370.36519313 249.412815 33.37452469 360.19298719-309.67102875 177.91673532-446.41454625-142.36245188-106.75972875-142.36245188 71.20544531-142.36245188 71.20544531v52.79859562a159.41300719 159.41300719 0 0 0 26.68993219 87.19034063c22.57261031 34.44018469 41.51229 86.22156-26.68993219 108.9394875-94.06869 31.34008406-105.25811719-130.78551187-106.56597281-169.53677438 0-6.00644531-0.62970844-11.91601312-1.40473313-17.87401968L317.20224594 149.32983656 247.69216812-93.15619031000006a2.17975875 2.17975875 0 0 1 3.48761438-2.32507594l170.21492156 136.16224969a8.37996094 8.37996094 0 0 1 3.00322219 4.84390781l34.68238031 173.46034031a0.96878156 0.96878156 0 0 0 1.50161156 0.58126875c14.04733312-9.68781562 148.75641-98.28289031 283.46548688 36.42618656 161.10837469 161.10837469 142.36245188 427.03891594-71.15700563 569.35292813C566.27598781 896.64793875 198.81713844 897.71359875 175.03355094 576.3687525c-14.28952781-191.43123844 51.9266925-255.61301719 86.65751156-276.10274719a49.06878656 49.06878656 0 0 1 48.43907812-1.59849c14.04733312 8.08932656 25.28519906 24.8492475 8.96122969 60.209775z"  horiz-adv-x="1024" />

    
    <glyph glyph-name="chenggong" unicode="&#59217;" d="M512 896C229.052632 896 0 666.947368 0 384s229.052632-512 512-512 512 229.052632 512 512S794.947368 896 512 896m0-53.894737c251.957895 0 458.105263-206.147368 458.105263-458.105263S763.957895-74.105263 512-74.105263 53.894737 132.042105 53.894737 384 260.042105 842.105263 512 842.105263M423.073684 180.547368c-6.736842 0-14.821053 2.694737-18.863158 8.084211L253.305263 342.231579c-10.778947 10.778947-9.431579 28.294737 0 37.726316 10.778947 10.778947 28.294737 9.431579 37.726316 0l129.347368-134.736842 295.073685 317.978947c10.778947 10.778947 26.947368 12.126316 37.726315 1.347368s12.126316-26.947368 1.347369-37.726315L441.936842 188.631579c-4.042105-5.389474-12.126316-8.084211-18.863158-8.084211z"  horiz-adv-x="1024" />

    
    <glyph glyph-name="sale" unicode="&#59062;" d="M25.638506 315.278562L445.264988-102.683498a86.966068 86.966068 0 0 1 122.751148 0l412.68072 407.399379c43.371006 43.274981 43.371006 138.115047 43.371005 158.53623V809.003846C1024.067861 856.759965 989.339049 895.969914 941.42289 895.969914L575.666078 895.457784c-57.870685 0-101.24169-14.403655-144.644705-57.646628L25.638506 437.581597a86.261889 86.261889 0 0 1 0-122.303035zM816.015067 607.832798c-44.139201 0-80.020305 35.881105-80.020305 80.020306s35.881105 80.020305 80.020305 80.020305 80.020305-35.913113 80.020306-80.020305c0-44.139201-35.881105-80.020305-80.020306-80.020306zM816.015067 735.865287a48.012183 48.012183 0 1 0-0.032008-96.056374 48.012183 48.012183 0 0 0 0.032008 96.056374zM534.791706 159.527039l43.883135 32.008122-89.750775 383.777385-44.395265-32.392219 90.262905-383.393288z m-224.985091 134.338089c12.515176-5.441381 25.446457-6.753714 38.825852-3.936999s26.214652 9.53842 38.505771 20.197125c18.116597 15.619964 27.719034 33.256439 28.871326 52.813402 1.120284 19.556963-6.049535 38.18569-21.63749 55.854173-15.491931 17.604467-33.06439 27.110879-52.781394 28.679277-19.717003 1.504382-38.601795-5.569413-56.686384-21.253393-12.291119-10.626697-20.741263-22.309661-25.382441-35.080902s-5.025275-25.670514-1.280325-38.697819c3.74495-12.995298 10.114567-24.646254 19.140857-34.888854 9.122315-10.370632 19.94106-18.24463 32.424228-23.68601z m-8.674201 91.479213c-0.640162 5.889494 1.53639 10.882762 6.433632 15.17185 4.929251 4.25708 10.178583 5.665438 15.844021 4.161056 8.962274-2.304585 18.9168-9.698461 29.799561-22.021588 10.946778-12.45116 16.932297-23.205889 17.988565-32.264187a16.260126 16.260126 0 0 0-6.145559-15.139842 16.996313 16.996313 0 0 0-16.132094-4.129048c-8.86625 2.20856-18.820776 9.570429-29.767554 22.021588-10.978786 12.45116-16.996313 23.205889-18.020572 32.200171z m360.955594-91.70327c12.387143-5.505397 25.254408-6.81773 38.633803-4.001015s26.118628 9.570429 38.249706 20.165117c18.116597 15.84402 27.687026 33.608528 28.743294 53.357539s-6.049535 38.441755-21.445442 56.142247c-15.363899 17.668483-32.936358 27.334936-52.589345 28.871326-19.620979 1.600406-38.505771-5.505397-56.59036-21.381426-12.131078-10.56268-20.517206-22.373677-25.06236-35.27295a61.967725 61.967725 0 0 1-1.248316-38.953885c3.680934-12.995298 10.114567-24.678262 19.204873-35.144918 9.090307-10.338623 19.78102-18.308646 32.104147-23.782035z m-8.514161 92.023351a16.516191 16.516191 0 0 0 6.113551 15.267875 16.900289 16.900289 0 0 0 15.876029 4.289088c8.930266-2.336593 18.820776-9.794485 29.767554-22.277653 10.882762-12.579192 16.86828-23.365929 17.89254-32.456236a16.932297 16.932297 0 0 0-6.369616-15.203858 16.260126 16.260126 0 0 0-15.747997-4.193064c-8.86625 2.240569-18.692743 9.634445-29.639521 22.117612-10.882762 12.579192-16.900289 23.365929-17.89254 32.456236z"  horiz-adv-x="1024" />

    
    <glyph glyph-name="qianjin" unicode="&#58905;" d="M716.8 394.24L256 803.84C245.76 814.08 235.52 844.8 256 855.04 266.24 865.28 296.96 875.52 307.2 855.04l481.28-440.32s10.24 0 10.24-10.24c10.24-10.24 10.24-20.48 10.24-20.48 0-10.24 0-20.48-10.24-20.48l-10.24-10.24L296.96-76.8c-10.24-10.24-40.96-10.24-51.2 0S235.52-35.84 256-25.6L716.8 394.24zM716.8 394.24L256 814.08C245.76 824.32 235.52 855.04 256 865.28 266.24 875.52 296.96 885.76 307.2 865.28l481.28-440.32s10.24 0 10.24-10.24c10.24 0 10.24-10.24 10.24-20.48s0-20.48-10.24-20.48l-10.24-10.24L307.2-76.8c-20.48-10.24-40.96-10.24-61.44 0S235.52-35.84 245.76-25.6L716.8 394.24z"  horiz-adv-x="1024" />

    
    <glyph glyph-name="mendianzuoye-xitongtubiao-" unicode="&#58918;" d="M512.001 46.892c-185.883 0-337.109 151.225-337.109 337.107 0 185.884 151.227 337.108 337.109 337.108 185.885 0 337.107-151.225 337.107-337.108 0-185.882-151.222-337.107-337.107-337.107z m0 638.886c-166.406 0-301.777-135.372-301.777-301.778s135.371-301.776 301.777-301.776S813.778 217.594 813.778 384 678.407 685.778 512.001 685.778zM512.001 279.475a17.68 17.68 0 0 0-12.127 4.813l-130.715 123.26c-7.09 6.694-7.418 17.873-0.725 24.98 6.678 7.074 17.891 7.435 24.98 0.725l118.189-111.461L621.96 432.856c6.865 6.917 18.043 6.968 24.979 0.068 6.918-6.866 6.953-18.062 0.07-24.979L524.526 284.684c-3.433-3.468-7.988-5.209-12.525-5.209z"  horiz-adv-x="1024" />

    
    <glyph glyph-name="wode" unicode="&#58906;" d="M670.54933333 317.82229333c80.46819555 51.94183111 133.74464 142.39175111 133.74464 245.29123556 0 161.13095111-130.62371555 291.75352889-291.75466666 291.75352889-161.13095111 0-291.75352889-130.62257778-291.75352889-291.75352889 0-103.18279111 53.56544-193.85344 134.40455111-245.72700444-171.45173333-61.04632889-297.19324445-218.44764445-312.05148444-407.03658667h73.0259911c17.95185778 201.84064 179.49127111 355.41105778 385.17532445 361.24444444 3.71825778-0.13994667 7.44675555-0.23438222 11.19914667-0.23438222 4.05504 0 8.08504889 0.10581333 12.10026666 0.26851555 206.15623111-5.36689778 368.18488889-159.11253333 386.16405334-361.27857777h73.02712888c-14.89464889 189.03950222-141.20277333 346.74005333-313.28142222 407.47235555zM293.61834667 563.11352889c0 120.90709333 98.01500445 218.92209778 218.92096 218.92209778s218.92209778-98.01500445 218.92209778-218.92209778c0-117.08302222-91.91537778-212.69731555-207.52497778-218.62741334a483.77628445 483.77628445 0 0 1-10.45276445 0.1183289c-3.93102222 0-7.84952889-0.04892445-11.75779555-0.14449778-115.88266667 5.63655111-208.10752 101.37258667-208.10752 218.65358222z"  horiz-adv-x="1024" />

    
    <glyph glyph-name="icon--copy" unicode="&#58880;" d="M268.02606186-38.30899283999997a117.44211993 117.44211993 0 0 0-117.28124029 117.2812403L150.74482157 689.0277525399999A117.44211993 117.44211993 0 0 0 268.02606186 806.30899284l488.02831609 0a117.44211993 117.44211993 0 0 0 117.2812403-117.2812403l0-609.97506528a117.44211993 117.44211993 0 0 0-117.2812403-117.28124029z m0 792.97562884a65.79976308 65.79976308 0 0 1-65.71932328-65.71932326l0-609.97506528a65.79976308 65.79976308 0 0 1 65.71932328-65.71932326l488.02831609 0a65.79976308 65.79976308 0 0 1 65.71932328 65.71932326L821.77370123 689.0277525399999a65.79976308 65.79976308 0 0 1-65.71932328 65.71932326zM318.94446042 358.17882159a25.82117841 25.82117841 0 1 0 0 51.56191701l386.11107916 0a25.82117841 25.82117841 0 1 0 0-51.56191701zM318.94446042 236.23207242a25.82117841 25.82117841 0 1 0 0 51.24015779l263.44037172 0a25.82117841 25.82117841 0 1 0 0-51.64235684zM318.94446042 480.52776979a25.82117841 25.82117841 0 1 0 0 51.64235684l386.11107916 0a25.82117841 25.82117841 0 1 0 0-51.64235684z"  horiz-adv-x="1024" />

    
    <glyph glyph-name="qingchu" unicode="&#59155;" d="M873.085762 745.938385c-201.218984 201.218984-525.215654 201.218984-723.024147 0-201.218984-201.218984-201.218984-525.215654 0-723.024147 201.218984-201.218984 525.215654-201.218984 723.024147 0 201.218984 201.218984 201.218984 521.805162 0 723.024147zM753.718568 145.691923l-3.410491-3.410491c-13.641965-13.641965-30.694421-13.641965-44.336387 0L511.573689 336.679434l-194.398002-194.398002c-13.641965-13.641965-30.694421-13.641965-44.336386 0l-3.410492 3.410491c-13.641965 13.641965-13.641965 30.694421 0 44.336387l194.398002 194.398001-194.398002 194.398002c-13.641965 13.641965-13.641965 34.104913 0 44.336386 13.641965 13.641965 37.515404 13.641965 51.157369 0l190.987511-190.98751 194.398001 194.398002c13.641965 13.641965 30.694421 13.641965 44.336387 0s13.641965-37.515404 0-51.157369L559.320566 384.426311l194.398002-194.398001c13.641965-13.641965 13.641965-34.104913 0-44.336387z"  horiz-adv-x="1024" />

    
    <glyph glyph-name="weibiaoti--" unicode="&#58914;" d="M827.09333333 617.06666667l-30.82666666-30.82666667 12.26666666 12.26666667c9.81333333 10.98666667 9.38666667 27.84-1.17333333 38.4l19.73333333-19.84zM659.73333333 784.74666667l30.82666667-30.82666667-12.26666667 12.26666667c-10.98666667 9.81333333-27.84 9.38666667-38.4-1.17333334l19.84 19.73333334zM990.18666667-57.17333332999999c0 24.10666667-19.52 43.73333333-43.73333334 43.73333333H72.64c-24.10666667 0-43.73333333-19.52-43.73333333-43.73333333 0-24.10666667 19.52-43.73333333 43.73333333-43.73333334h873.92c24.10666667 0.10666667 43.62666667 19.62666667 43.62666667 43.73333334zM141.65333333 54.82666667000001c24.10666667 0 43.73333333 19.52 43.73333334 43.73333333V327.78666667000005c0 24.10666667-19.52 43.73333333-43.73333334 43.73333333-24.10666667 0-43.73333333-19.52-43.73333333-43.73333333v-229.22666667c0-24.21333333 19.62666667-43.73333333 43.73333333-43.73333333zM97.92 98.45333332999996c0-24.10666667 19.52-43.73333333 43.73333333-43.73333333h228.58666667c24.10666667 0 43.73333333 19.52 43.73333333 43.73333333 0 24.10666667-19.52 43.73333333-43.73333333 43.73333334H141.65333333c-24.10666667 0-43.73333333-19.62666667-43.73333333-43.73333334zM899.09333333 668.26666667c-0.10666667 0.10666667-0.32 0.21333333-0.42666666 0.42666666L707.30666667 860.05333333c-28.48 24.74666667-71.78666667 23.68-98.88-3.52-0.10666667-0.10666667-0.21333333-0.32-0.42666667-0.42666666L110.29333333 358.50666666999996c-17.06666667-17.06666667-17.06666667-44.69333333 0-61.76s44.69333333-17.06666667 61.76 0l487.46666667 487.46666666L826.66666667 617.17333333 339.30666667 129.81333332999998c-17.06666667-17.06666667-17.06666667-44.69333333 0-61.76s44.69333333-17.06666667 61.76 0l502.82666666 502.82666667c23.36 28.48 21.76 70.72-4.8 97.38666667z"  horiz-adv-x="1024" />

    
    <glyph glyph-name="_tumblr_original" unicode="&#58935;" d="M489.07174566 520.05549106a20.07454794 20.07454794 0 0 1 18.58754432 21.86769996c-4.06739201 44.87251958-2.66785955 154.07981129 102.42830525 180.36478587 127.13880571 31.79563533 163.2205096-27.4658305 166.19451685-32.88902009a0.74350148 0.74350148 0 0 1 0.65603099-0.39361887c6.73525157 0 85.19655781 1.09338475 123.1151486 25.62894428a2.66785955 2.66785955 0 0 0 3.76124431-3.54256777c-10.80264358-20.03081305-34.98831911-62.27920866-59.39267188-87.4707978a0.78723705 0.78723705 0 0 1 0.56855983-1.31206199c10.49649588 0.26241212 61.66691257 2.97400726 92.58784036 28.38427363a0.87470822 0.87470822 0 0 0 1.26832639-1.13712034c-13.38303198-19.24357532-56.46240022-78.72371838-85.72138272-91.45071934a15.61353774 15.61353774 0 0 1-9.35937486-14.8263007c1.8806225-65.16574475-7.43501814-368.42700269-333.70109569-486.99366992-99.19188517-33.02022614-297.40071458-33.28263894-430.66247576 65.16574475a0.83097263 0.83097263 0 0 0 0.48108933 1.48700363c20.55563729 0.30614771 167.28790162 4.63595253 229.69831634 65.6030992a0.78723705 0.78723705 0 0 1-0.3061477 1.31206199c-11.37120407 4.02365643-99.71671012 36.78147046-131.20619772 98.27344206a0.83097263 0.83097263 0 0 0 0.69976656 1.18085526c9.27190437 0 64.59718425 2.71159446 65.25321524 32.71407911a0.78723705 0.78723705 0 0 1-0.48108934 0.74350147C233.74448505 326.78876189000005 79.79587982 391.779565 110.32318875 487.86623754a0.83097263 0.83097263 0 0 0 1.31206197 0.34988328c5.68560171-5.11704187 37.69991425-31.57695809 96.21787794-32.40793141a0.78723705 0.78723705 0 0 1 0.48108934 1.44326874c-19.76840023 13.12061984-156.39778755 109.64464547-64.94706752 263.68072117a0.83097263 0.83097263 0 0 0 1.39953314 0c10.19034817-17.18801185 133.8303217-217.01505095 344.28506204-200.87668826z"  horiz-adv-x="1024" />

    
    <glyph glyph-name="gouwuchekong" unicode="&#58893;" d="M258.648412 500.539809L625.618962 636.398124l384.41047-142.647903-377.754012-150.435959-379.018739 149.370926 5.391731 7.854621zM627.549335 338.987564l98.116196-226.519278 282.300399 81.341921V311.696085l-240.697534-90.461269-139.719061 117.752748zM1014.622389 485.8956a6.656458 6.656458 0 0 0-4.393263 1.59755 6.656458 6.656458 0 0 0-2.263196 6.257071 6.656458 6.656458 0 0 0 3.993875 5.192038 6.656458 6.656458 0 0 0 6.257071-0.599082 6.656458 6.656458 0 0 0 3.061971-5.458296 6.656458 6.656458 0 0 0-3.92731-6.057377 6.656458 6.656458 0 0 0-2.729148-0.931904zM621.891345-127.829861a6.656458 6.656458 0 0 0-3.860746 1.198163 6.656458 6.656458 0 0 0-2.795712 5.458295V344.246166a6.656458 6.656458 0 0 0 2.46289 5.192038l2.263195 1.863808a6.656458 6.656458 0 0 0 8.586832 0l140.717529-121.879753L1012.226064 321.015127a6.656458 6.656458 0 0 0 6.190506-0.798775 6.656458 6.656458 0 0 0 2.862277-5.458296V17.347496a6.656458 6.656458 0 0 0-4.459827-6.656458l-392.731043-138.654028a6.656458 6.656458 0 0 0-2.196632 0.133129z m6.656459 461.359129v-445.317064l379.418126 133.994507V305.172756l-237.768692-89.729059a6.656458 6.656458 0 0 0-6.656459 1.198162zM621.891345-126.032617a6.656458 6.656458 0 0 0-2.263196 0.399387l-392.731043 141.782563a6.656458 6.656458 0 0 0-4.393263 6.190507v289.555939a6.656458 6.656458 0 0 0 2.862278 5.458295 6.656458 6.656458 0 0 0 6.123941 0.732211l239.632501-89.729059 146.442084 119.283734a6.656458 6.656458 0 0 0 7.055846 0.86534 6.656458 6.656458 0 0 0 3.794181-5.990813v-461.891646a6.656458 6.656458 0 0 0-2.795712-5.458296 6.656458 6.656458 0 0 0-3.727617-1.198162z m-386.074585 153.098542l379.418127-136.923348V328.47036l-138.587463-112.826969a6.656458 6.656458 0 0 0-6.656459-1.065034L235.81676 302.310479zM628.547804 343.513956a6.656458 6.656458 0 0 0-6.656459 6.656458V629.741665a6.656458 6.656458 0 0 0 13.312917 0v-279.571251a6.656458 6.656458 0 0 0-6.656458-6.656458zM687.657154 64.475221a6.656458 6.656458 0 0 0-1.996938 13.312917l149.770314 48.259323a6.656458 6.656458 0 1 0 4.060439-12.647271l-149.770313-48.259323a5.391731 5.391731 0 0 0-2.063502-0.665646zM235.81676 303.042689v-98.249325l303.601066-93.256982 81.874438 228.58278-149.637184-115.822375-235.83832 78.745902zM695.045823-38.034238a6.257071 6.257071 0 0 0-3.860746 1.264727 6.656458 6.656458 0 0 0-2.729148 5.325167v65.832373a6.656458 6.656458 0 0 0 4.459827 6.257071l146.442084 51.055036a6.656458 6.656458 0 0 0 5.990813-0.86534 6.656458 6.656458 0 0 0 2.795712-5.325166v-67.563053a6.656458 6.656458 0 0 0-4.459827-6.190506l-146.442084-49.457486a7.921185 7.921185 0 0 0-2.196631-0.332823z m6.656458 67.762747v-51.920376l133.129167 44.86453v53.251667zM608.977816 838.887587a28.556206 28.556206 0 1 0 28.556206 28.556207 28.556206 28.556206 0 0 0-28.556206-28.556207z m0 43.799496a15.24329 15.24329 0 1 1 15.24329-15.243289A15.24329 15.24329 0 0 1 608.977816 882.687083zM477.113376 485.363084a121.746623 121.746623 0 0 0-41.802559 7.388668c-19.237165 8.254008-17.107098 20.701586-15.309854 25.627365 3.394794 9.452171 11.449108 31.618177 5.65799 37.875248-2.862277 3.128535-10.916592 3.128535-22.032877 0a64.101694 64.101694 0 0 0-52.253199 4.992344 70.957846 70.957846 0 0 0-30.35345 47.793371A16.108629 16.108629 0 0 1 313.297936 620.489188c-11.049721 6.257071-31.085661 1.530985-37.875249-0.798775A6.656458 6.656458 0 0 0 266.702727 623.750853a6.656458 6.656458 0 0 0 4.127004 8.520267c1.198163 0.399388 30.220321 10.31751 48.79184 0a28.689336 28.689336 0 0 0 14.244821-20.302198 58.443704 58.443704 0 0 1 24.296073-39.139976 51.454423 51.454423 0 0 1 41.669429-3.661052c17.040533 4.659521 28.622771 3.394794 35.345794-3.860746 10.45064-11.315979 4.260133-31.618177-2.928842-51.454423-0.532517-1.397856-0.798775-2.862277 1.59755-5.058908 10.650333-9.651865 47.527113-11.715367 55.115476-9.052783A6.656458 6.656458 0 0 0 499.67877 492.086106c-2.196631-4.79265-11.449108-6.723023-22.565394-6.723022zM973.68517 585.875605a6.656458 6.656458 0 0 0-3.461359 12.314448c1.065033 0.665646 79.211855 49.257792 127.338049 97.117727-24.429202 5.391731-41.869123 17.306792-47.9265 33.947938a45.130788 45.130788 0 0 0 27.424608 58.37714c38.3412 16.241758 59.042786-6.656458 64.501082-14.178256a33.282292 33.282292 0 0 0 5.391731-27.29148 99.18123 99.18123 0 0 0-22.3657-40.537831h5.325167A183.252299 183.252299 0 0 1 1299.119419 830.966402a6.656458 6.656458 0 0 0 8.453702 4.127004 6.656458 6.656458 0 0 0 4.127005-8.453702 196.565215 196.565215 0 0 0-181.654749-134.393895 149.836878 149.836878 0 0 0-16.641146 0.665646c-48.392452-51.520988-131.465053-103.10854-136.191138-106.037381a6.656458 6.656458 0 0 0-3.527923-0.998469z m128.869034 194.102326a52.452892 52.452892 0 0 1-19.969375-4.592957c-24.229508-10.250946-24.029815-30.952531-19.969375-41.5363 4.992344-13.312917 22.698523-23.430733 46.595208-26.625833 13.312917 14.843902 22.898217 29.288417 25.361106 41.802558a20.568456 20.568456 0 0 1-3.128535 16.84084 34.147631 34.147631 0 0 1-28.889029 14.111692zM118.263705-6.815448a6.656458 6.656458 0 0 0-4.859214 2.130067c-2.32976 2.46289-22.765088 25.094848-15.043596 44.132319 4.925779 12.04819 19.436858 18.771213 43.200415 19.969375 16.108629 0.798775 26.093317 4.459827 28.289948 10.250946 3.527923 9.518735-10.983156 27.491173-18.571519 34.680148a6.656458 6.656458 0 0 0 8.919654 9.651864c3.061971-2.862277 29.354981-28.622771 21.833184-48.924969-4.260133-11.648802-17.373356-17.839308-39.938751-18.970906-17.639615-0.86534-28.822465-4.992344-31.485048-11.648802-3.860746-9.518735 7.921185-25.294542 12.381013-30.087192a6.656458 6.656458 0 0 0-0.332823-9.385606 6.656458 6.656458 0 0 0-4.393263-1.797244zM1297.055917 462.331738l-30.153756-7.654928-7.654927 30.153757a6.656458 6.656458 0 0 1-12.846965-3.261665l7.654927-30.153756-30.153756-7.654927a6.656458 6.656458 0 1 1 3.261664-12.913529l30.153757 7.654927 7.854621-30.153757a6.656458 6.656458 0 0 1 12.913529 3.261665l-7.654927 30.153756 30.153756 7.654927a6.656458 6.656458 0 0 1-3.328229 12.91353zM50.035007 479.172577l-18.837777-1.264727-1.331292 18.704648a4.06044 4.06044 0 1 1-8.054314-0.532516l1.264727-18.771213-18.837777-1.331292a4.06044 4.06044 0 1 1 0.532516-8.054314l18.904342 1.331291 1.331292-19.237164a3.92731 3.92731 0 0 1 4.260133-3.727617 3.993875 3.993875 0 0 1 3.794181 4.260133L31.729747 469.986665l18.904341 1.331291a4.06044 4.06044 0 0 1-0.599081 8.054315zM241.807573 489.356959a6.656458 6.656458 0 0 0-4.127004 1.397856L78.924037 615.030892a6.656458 6.656458 0 0 0-2.46289 6.656459 6.656458 6.656458 0 0 0 4.326698 5.192037l394.661416 143.91263a6.656458 6.656458 0 0 0 6.656459-1.264727l145.110792-126.472709a6.656458 6.656458 0 0 0-1.996938-11.249414L244.137333 489.95604a7.12241 7.12241 0 0 0-2.32976-0.599081zM96.563651 618.159428L242.939171 503.268957l367.103678 137.123042-133.728248 116.554586zM240.076894 488.291925a6.656458 6.656458 0 0 0-6.190507 4.326698 6.656458 6.656458 0 0 0-0.465952 2.329761 6.656458 6.656458 0 0 0 4.326698 6.25707L619.49502 643.853357 760.611938 769.527291a6.656458 6.656458 0 0 0 6.656458 1.264727l394.727981-144.245453a6.656458 6.656458 0 0 0 2.063502-11.315979L1016.752455 489.95604a6.656458 6.656458 0 0 0-6.656458-1.198163L622.889814 630.939828 242.672912 488.691313a7.521798 7.521798 0 0 0-2.596018-0.399388z m395.526755 152.166638l375.490817-137.921817 135.658621 115.422988-380.216901 138.920286zM475.58239 214.511793a5.791119 5.791119 0 0 0-2.32976 0.465952l-391.066929 146.442084A6.656458 6.656458 0 0 0 80.321893 372.802373l157.292111 127.338048a6.656458 6.656458 0 0 0 6.656458 0.998469l386.074585-149.770313a6.656458 6.656458 0 0 0 4.127005-5.125473 6.656458 6.656458 0 0 0-2.329761-6.257071L479.709395 216.042778a6.656458 6.656458 0 0 0-4.127005-1.530985zM97.761814 369.806966l376.622414-141.050352 140.384707 114.357954-371.7632 144.245453zM770.996013 214.511793a6.656458 6.656458 0 0 0-4.393263 1.664114L623.488895 340.119162a6.656458 6.656458 0 0 0-2.196631 6.190506 6.656458 6.656458 0 0 0 4.193569 5.058909l386.074585 149.770313a6.656458 6.656458 0 0 0 6.656458-1.131598l147.240859-126.472709a6.656458 6.656458 0 0 0-1.930373-11.315979l-390.268154-147.240859a7.25554 7.25554 0 0 0-2.263195-0.465952z m-130.40002 128.469646L772.593563 228.823178l376.023333 141.915693-135.991445 116.554585z"  horiz-adv-x="1312" />

    
    <glyph glyph-name="google" unicode="&#58883;" d="M987.6629579 425.25220256h-79.49076674v79.49076672h-68.38180867v-79.49076672h-79.49076676V356.87039385h79.49076676v-79.49076674h68.38180867V356.87039385h79.49076674V425.25220256zM395.18519332 423.5241424v-74.05972082h197.4925882a241.92842054 241.92842054 0 1 0-88.87166473 218.42680262l59.24777628 64.87631568a325.86277044 325.86277044 0 1 1 113.5582383-283.30311831V423.5241424z"  horiz-adv-x="1024" />

    
    <glyph glyph-name="shezhi" unicode="&#58947;" d="M854.3 448.4c-1.7 9.1-8.8 16.4-18.1 18.5-33.5 7.6-61.4 27.9-78.6 57.2-17.1 29.2-21 63.3-10.9 95.8 2.8 8.9 0 18.6-7.2 24.7-33.5 28.6-71.6 50.4-113.4 64.7-2.5 0.9-5.1 1.3-7.8 1.3-6.6 0-12.9-2.7-17.4-7.5-23.4-24.8-55.1-38.5-89.2-38.5s-65.8 13.7-89.3 38.6c-6.3 6.7-16.4 9.2-25.3 6.2-42-14.5-80.1-36.3-113.3-64.8-7.1-6.1-9.9-15.7-7.1-24.5 10.1-32.5 6.2-66.5-10.9-95.8-17-29.3-44.9-49.6-78.5-57.2-9.2-2.2-16.3-9.4-18.1-18.5-4.2-21.7-6.3-43.5-6.3-64.6 0-21.1 2.1-42.9 6.3-64.6 1.7-9.1 8.8-16.4 18-18.5 33.5-7.6 61.4-27.9 78.6-57.2 17.1-29.3 20.9-63.3 10.9-95.8-2.7-8.8 0.1-18.4 7.2-24.6 33.5-28.6 71.6-50.3 113.3-64.7 9.2-3.1 19-0.4 25.2 6.1 23.4 24.9 55.1 38.6 89.3 38.6 34.1 0 65.8-13.7 89.3-38.5 4.4-4.8 10.8-7.5 17.4-7.5 2.6 0 5.2 0.4 7.9 1.3 41.7 14.4 79.8 36.1 113.3 64.7 7 6.1 9.8 15.7 7.2 24.6-10.1 32.5-6.2 66.6 10.9 95.8 17.1 29.3 45 49.6 78.6 57.2 9.1 2.1 16.2 9.3 18 18.5 4.2 21.7 6.3 43.5 6.3 64.6 0 21-2.2 42.7-6.3 64.4z m-168-285.6c-20.8-16.1-43.8-29.2-68.4-39.1-29.3 25.7-66.9 39.8-106.2 39.8-39.1 0-76.7-14.1-106.2-39.8-24.6 9.8-47.6 22.9-68.4 39.1 7.9 38 1.5 77.2-18.2 110.9-19.6 33.6-50.7 58.7-88.1 71.1-1.9 13.1-2.9 26.2-2.9 39.1 0 12.8 1 26 2.9 39.1 37.3 12.3 68.5 37.4 88.1 71.1 19.6 33.6 26 72.8 18.2 110.9 20.8 16.1 43.8 29.2 68.4 39.1 29.5-25.8 67-39.9 106.2-39.9 39.4 0 76.9 14.1 106.2 39.8 24.6-9.8 47.6-22.9 68.4-39.1-7.8-38.1-1.5-77.3 18.1-110.9 19.6-33.6 50.7-58.7 88.1-71.1 1.9-13.1 2.9-26.2 2.9-39.2 0.1-12.4-0.8-25.4-2.8-39-37.4-12.4-68.6-37.5-88.1-71.1-19.6-33.5-25.9-72.7-18.2-110.8z m0 0M512 244c-76.9 0-139.5 62.6-139.5 139.5S435 523 512 523c76.9 0 139.5-62.6 139.5-139.5S588.9 244 512 244z m0 229c-49.4 0-89.5-40.1-89.5-89.5S462.6 294 512 294s89.5 40.1 89.5 89.5S561.3 473 512 473z"  horiz-adv-x="1024" />

    
    <glyph glyph-name="instagram" unicode="&#58922;" d="M688.64 806.4h-353.28c-135.68 0-245.76-110.08-245.76-245.76v-353.28c0-135.68 110.08-245.76 245.76-245.76h353.28c135.68 0 245.76 110.08 245.76 245.76v353.28c0 135.68-110.08 245.76-245.76 245.76z m163.84-599.04c0-90.112-73.728-163.84-163.84-163.84h-353.28c-90.112 0-163.84 73.728-163.84 163.84v353.28c0 90.112 73.728 163.84 163.84 163.84h353.28c90.112 0 163.84-73.728 163.84-163.84v-353.28zM512 586.24c-108.544 0-197.12-88.576-197.12-197.12s88.576-197.12 197.12-197.12 197.12 88.576 197.12 197.12-88.576 197.12-197.12 197.12z m0-312.32c-63.488 0-115.2 51.712-115.2 115.2S448.512 504.32 512 504.32s115.2-51.712 115.2-115.2-51.712-115.2-115.2-115.2zM727.04 599.04m-40.96 0a40.96 40.96 0 1 1 81.92 0 40.96 40.96 0 1 1-81.92 0Z"  horiz-adv-x="1024" />

    
    <glyph glyph-name="dizhi" unicode="&#58881;" d="M512.227-128c-192.737 0-400.44 40.361-400.44 128.794 0 62.129 99.317 94.327 181.4 110.2a25.396 25.396 0 0 0 9.523-49.885c-106.118-19.954-141.491-49.431-141.491-59.862 0-23.128 118.816-78.002 349.194-78.002s349.194 54.42 349.194 78.002c0 10.884-37.187 40.815-146.934 61.222a25.396 25.396 0 0 0-20.407 29.478 25.85 25.85 0 0 0 29.477 20.407C807.908 96.482 910.4 64.737 910.4 1.247 912.213-87.639 704.964-128 512.227-128zM512.227-45.463a31.745 31.745 0 0 0-26.303 13.605l-224.482 330.6a351.461 351.461 0 1 0 501.116 0l-224.482-330.6a31.745 31.745 0 0 0-25.85-13.605z m0 878.427a287.972 287.972 0 0 1-204.075-492.046l3.628-4.535 199.993-294.321 199.993 294.32 3.628 4.536A287.972 287.972 0 0 1 512.227 832.964zM512.227 409.396A165.074 165.074 0 1 0 677.3 574.469a165.074 165.074 0 0 0-165.073-165.073z m0 267.11A102.037 102.037 0 1 1 614.264 574.47a102.037 102.037 0 0 1-102.037 102.038z"  horiz-adv-x="1024" />

    
    <glyph glyph-name="jia" unicode="&#58953;" d="M83.2 438.4h854.4c28.8 0 54.4-22.4 54.4-54.4 0-28.8-22.4-54.4-54.4-54.4H83.2C54.4 329.6 32 355.2 32 384c0 28.8 22.4 54.4 51.2 54.4zM563.2 809.6v-854.4c0-28.8-22.4-54.4-54.4-54.4-28.8 0-54.4 22.4-54.4 54.4V809.6C457.6 841.6 480 864 512 864c28.8 0 51.2-22.4 51.2-54.4z"  horiz-adv-x="1024" />

    
    <glyph glyph-name="icon-test" unicode="&#58884;" d="M741.4272 645.12q-22.7328-1.4848-46.7456-25.9584t-24.7296-47.4112a53.5552 53.5552 0 0 1 56.32-55.3984q23.0912 1.536 47.2576 26.2144t25.1904 46.9504A55.5008 55.5008 0 0 1 741.4272 645.12zM1024 896H0c665.6-419.84 1029.12-1024 1029.12-1024V896z m-452.3008-295.424l-28.6208 28.1088L604.16 690.688l-56.32 55.04-60.8256-62.0032L458.3936 711.68 597.504 853.6064l28.6208-28.1088-54.784-55.808 56.32-55.04 54.784 55.808 28.416-28.0576z m90.368-93.44q-31.6416 31.0272-31.3856 68.6592t33.4848 71.68a126.3616 126.3616 0 0 0 42.3936 29.7984 93.3888 93.3888 0 0 0 32.256 6.5024 77.3632 77.3632 0 0 0 30.72-5.12 109.1584 109.1584 0 0 0 35.84-24.3712q31.3344-30.72 31.0784-68.6592t-34.2528-72.4992q-33.6896-34.3552-71.3728-35.4304t-68.7104 29.44z m311.3984-69.632l-41.984 40.96-115.6096-117.76-28.5696 28.416 115.6096 117.76-42.0864 41.2672 23.552 23.9616 112.64-110.592z"  horiz-adv-x="1029" />

    
    <glyph glyph-name="new" unicode="&#58886;" d="M0 896c680.96-430.08 1029.12-1024 1029.12-1024V896z m588.8-230.7072l32.768 93.5424 14.7968 35.84-0.7168 0.8192c-11.9808-13.056-25.6-28.7232-39.2704-41.4208L547.84 709.632l-20.48 22.528 120.32 110.5408 22.272-24.2688-32.3072-93.3888-15.104-35.84 0.7168-0.8192c11.3152 12.8 25.6 29.184 39.3216 41.728l47.9744 44.0832 20.48-22.4768-120.32-110.5408z m117.76-128l-68.8128 74.496 120.32 110.5408 67.0208-72.96-20.0192-18.3808-45.1584 49.152-27.8016-25.6 38.4-41.7792-20.1728-18.5344-38.4 41.7792-32.2048-29.5936 46.7968-50.944z m120.6272-131.2768l-27.2896 29.184 47.2576 67.9936c7.68 10.5984 15.36 20.8896 23.0912 30.72l-0.6144 0.6656c-10.5984-6.7584-21.2992-13.6704-32.512-20.48l-71.68-41.6768-26.5216 29.3376 99.2256 133.5296 22.016-24.32-49.9712-63.3856c-11.0592-13.4144-22.1184-27.136-33.3312-40.96l0.5632-0.6656c15.0528 9.3696 30.4128 18.7904 45.312 27.6992l71.3728 40.0896 18.5856-20.48-46.08-67.7376c-10.24-13.9264-20.7872-28.2624-31.4368-42.8032l0.7168-0.8192c14.6432 10.24 29.0816 20.224 43.2128 29.952L946.7392 517.12l20.9408-22.784z"  horiz-adv-x="1029" />

    
    <glyph glyph-name="sale1" unicode="&#58888;" d="M676.8128 661.0944l-15.36-9.1648 28.2624-27.2896 8.448 15.9744c7.68 15.36 17.0496 31.744 25.6 47.5648l-0.6656 0.6144c-15.3088-9.5232-31.3344-19.1488-46.2848-27.6992zM0 896c721.92-476.16 1029.12-1024 1029.12-1024V896z m526.1824-209.5104a90.4704 90.4704 0 0 0-27.6992 58.5728L527.36 747.52a66.56 66.56 0 0 1 18.2784-41.8304c12.4416-11.9296 24.0128-13.1584 31.6928-5.12s3.3792 18.1248-3.1232 32.6656l-9.7792 21.8624c-7.5264 16.4352-10.8032 37.3248 5.12 54.0672 17.92 18.7392 48.896 16.7424 73.1648-6.5024a75.264 75.264 0 0 0 23.4496-50.6368l-25.9072-2.816a54.2208 54.2208 0 0 1-16.384 33.7408c-10.496 10.24-21.6064 12.0832-28.8768 4.5056s-2.0992-19.3536 4.4032-32.9728l9.8816-21.1968c9.0624-19.6608 10.24-37.632-5.6832-54.2208-18.1248-18.5856-49.7152-19.0464-77.4144 7.424z m131.8912-122.0608l19.7632 37.4784-38.8608 37.1712-36.608-21.4016-24.2688 23.2448 148.0704 77.9264 28.16-26.9312-71.168-151.4496z m111.6672-106.8544l-72.4992 69.376 109.7216 114.6368 23.9616-22.9376-91.3408-95.3856 48.5376-46.4896z m185.8048 5.12l-49.3056 47.616-25.6-26.4704 42.0864-40.2944-18.3808-19.2-42.0864 40.2944-29.3376-30.72 51.2-49.1008-18.3808-19.2-75.264 71.9872 109.7216 114.6368 73.6256-70.2976z"  horiz-adv-x="1029" />

    
    <glyph glyph-name="gouwudai" unicode="&#58890;" d="M929.213555 624.439663h-107.491381s-56.305009 281.525044-317.355504 271.28777c-276.969457-10.851511-291.762318-271.28777-291.762318-271.28777h-112.610018c-61.423646-15.355911-56.305009-71.66092-56.305008-71.66092s76.779557-583.524637 87.016831-629.592371 61.423646-51.186372 61.423646-51.186372h639.829646c51.186372 0 61.423646 40.949097 61.423646 40.949097l87.016831 650.06692c0 56.305009-51.186372 61.423646-51.186371 61.423646z m-680.778743-163.796389a35.83046 35.83046 0 1 0 35.83046 35.83046 35.83046 35.83046 0 0 0-35.83046-35.83046z m35.83046 163.796389s30.711823 204.745487 235.45731 204.745486 235.457309-204.745487 235.457309-204.745486z m516.982354-163.796389a35.83046 35.83046 0 1 0 35.83046 35.83046 35.83046 35.83046 0 0 0-35.83046-35.83046z"  horiz-adv-x="1024" />

    
    <glyph glyph-name="facebook" unicode="&#58891;" d="M265.216 601.343964h107.212795V656.332761q0 92.159995 19.609599 137.369593t72.191996 73.779196Q516.812787 895.999949 597.247983 895.999949A538.163173 538.163173 0 0 0 758.783975 871.27035l-26.111998-134.604793A382.412781 382.412781 0 0 1 643.993581 747.519956q-41.932798 0-60.159997-19.558399t-18.227199-75.212796v-51.404797h144.383993v-151.756793h-144.383993V-128H372.428795V449.587171H265.216z"  horiz-adv-x="1024" />

    
    <glyph glyph-name="dianzan" unicode="&#58892;" d="M34.406015 445.2090225m7.60300781 0l322.69473656 0q7.60300781 0 7.60300782-7.60300781l0-523.59699188q0-7.60300781-7.60300782-7.60300781l-322.69473656 0q-7.60300781 0-7.60300781 7.60300781l0 523.59699188q0 7.60300781 7.60300781 7.60300781ZM613.53383469 848.74586437c31.47067688-33.68421094 39.84360937-123.28421063 53.55789469-331.54887187 1.2511275-19.24812 15.15789469-34.35789469 32.24060156-34.35789469h220.15037625a69.533835 69.533835 0 0 0 64.818045-44.70375937c6.92932312-17.9488725 8.51729344-41.23909781-4.13834625-69.96691781l-108.46315782-361.3353375c-15.83157938-58.27368375-63.32631562-98.02105219-117.12481218-98.02105313H454.01503719c-45.13684219 0-81.80451094 41.47969969-81.80451094 92.58345844V374.61654094000005a100.18646625 100.18646625 0 0 0 16.02406031 55.097745c38.25563906 58.12932375 132.95639063 216.54135375 150.13533844 384.48120281 4.28270719 41.14285687 48.50526281 62.89323281 75.16390969 34.55037563zM253.20902281 39.31428562999997m13.1849625 0l41.67217969 0q13.1849625 0 13.1849625-13.1849625l0-50.95939875q0-13.1849625-13.1849625-13.18496157l-41.67217969 0q-13.1849625 0-13.1849625 13.18496157l0 50.95939875q0 13.1849625 13.1849625 13.1849625Z"  horiz-adv-x="1024" />

    
    <glyph glyph-name="shangchuanshipin" unicode="&#58976;" d="M179.796 526.829c-10.762 0-19.489-8.725-19.489-19.487 0-10.766 8.727-19.489 19.489-19.489 10.764 0 19.489 8.723 19.489 19.489 0 10.762-8.726 19.487-19.489 19.487z m769.18 57.106a19.409 19.409 0 0 1-19.888-0.743L705.996 435.827V546.32c0 43.053-34.904 77.953-77.955 77.953H140.818c-43.053 0-77.953-34.901-77.953-77.953v-389.776c0-43.055 34.901-77.955 77.953-77.955H628.04c43.051 0 77.955 34.901 77.955 77.955v93.93l222.94-149.59a19.454 19.454 0 0 1 19.964-0.877 19.47 19.47 0 0 1 10.239 17.15V566.826a19.473 19.473 0 0 1-10.162 17.109z m-281.96-180.688a19.547 19.547 0 0 1-0.4-3.903v-112.063c0-1.321 0.14-2.624 0.4-3.894v-126.845c0-21.527-17.452-38.98-38.976-38.98H140.818c-21.525 0-38.978 17.452-38.978 38.98V546.32c0 21.525 17.452 38.978 38.978 38.978H628.04c21.523 0 38.976-17.452 38.976-38.978v-143.073z m253.146-249.929L705.996 297.52v91.471l214.166 142.055v-377.728z"  horiz-adv-x="1024" />

    
    <glyph glyph-name="Icon-yuyuejilu" unicode="&#58910;" d="M641.6 534.2h-328c-15.7 0-28.5 12.8-28.5 28.5s12.8 28.5 28.5 28.5h328c15.7 0 28.5-12.8 28.5-28.5s-12.7-28.5-28.5-28.5zM441.6 361.6h-128c-15.7 0-28.5 12.8-28.5 28.5s12.8 28.5 28.5 28.5h128c15.7 0 28.5-12.8 28.5-28.5s-12.7-28.5-28.5-28.5zM692 351.5c39.6 0 76.8-15.4 104.7-43.4 28-28 43.4-65.2 43.4-104.7 0-39.6-15.4-76.8-43.4-104.7-28-28-65.2-43.4-104.7-43.4-39.6 0-76.8 15.4-104.7 43.4s-43.4 65.2-43.4 104.7c0 39.6 15.4 76.8 43.4 104.7s65.1 43.4 104.7 43.4m0 57c-113.3 0-205.1-91.8-205.1-205.1S578.7-1.7 692-1.7s205.1 91.8 205.1 205.1c0 113.2-91.8 205.1-205.1 205.1zM380.6 189h-67c-15.7 0-28.5 12.8-28.5 28.5s12.8 28.5 28.5 28.5h67c15.7 0 28.5-12.8 28.5-28.5S396.4 189 380.6 189zM764.1 220.8h-51.2c-2.4 0-4.3 1.9-4.3 4.3v58.4c0 15.7-12.8 28.5-28.5 28.5s-28.5-12.8-28.5-28.5v-93.1c0-14.8 12-26.8 26.8-26.8h30.2v0.1h55.5c15.7 0 28.5 12.8 28.5 28.5 0 15.8-12.7 28.6-28.5 28.6zM440 55.2H183.9V712.8h583.4V505h57V723.3c0 25.7-20.8 46.5-46.5 46.5H173.4c-25.7 0-46.5-20.8-46.5-46.5v-678.6c0-25.7 20.8-46.5 46.5-46.5H440v57z"  horiz-adv-x="1024" />

    
    <glyph glyph-name="youhuiquan-xianxing-" unicode="&#58897;" d="M1030.625493 341.807658h23.791541v162.625728a96.370802 96.370802 0 0 1-95.28663 95.045703h-155.759308L394.096347 878.773719a94.322922 94.322922 0 0 1-131.847303-23.791541l-58.725957-93.058056a94.92524 94.92524 0 0 1-82.21634-64.749132L86.733722 595.262867a93.961532 93.961532 0 0 1-84.324452-93.058056v-160.397153h23.791542a106.128345 106.128345 0 0 0 0-212.196459H0v-162.625728a96.370802 96.370802 0 0 1 95.28663-94.985471h863.964238c51.980001 0 95.28663 43.306629 95.28663 93.058055v162.625728h-23.791542a107.182401 107.182401 0 0 0 0 214.364802zM303.146403 826.793718c17.286513 21.623199 43.306629 26.020116 64.929828 12.949826l352.897829-240.324686h-8.733604L253.394977 753.25075z m-138.533027-142.809482a46.679607 46.679607 0 0 0 45.535203 32.464914 37.705076 37.705076 0 0 0 15.178402-2.108111l337.719428-114.801718H136.485148z m842.280807-597.619434v-116.909829a48.185401 48.185401 0 0 0-47.643315-47.643315H95.28663a48.185401 48.185401 0 0 0-47.643315 47.643315v116.909829a152.02494 152.02494 0 0 1 129.859655 151.543086c0 75.771543-56.376919 138.533027-129.859655 151.543085V506.300571a48.185401 48.185401 0 0 0 47.643315 47.643315h863.964238a48.185401 48.185401 0 0 0 47.643315-47.643315v-116.909829a153.651197 153.651197 0 0 1-129.859656-151.543086 151.904476 151.904476 0 0 1 129.859656-151.543086zM272.789601 201.046056h47.643315v-71.434857h-47.643315zM272.789601 53.839656h47.643315v-71.434856h-47.643315zM272.789601 491.242633h47.643315v-73.663432h-47.643315zM272.789601 346.084113h47.643315v-71.434857h-47.643315zM623.157697 29.807188h-31.320511v46.619375a173.889065 173.889065 0 0 0-82.637962 20.237869v58.424798a126.486677 126.486677 0 0 1 38.367625-19.334392 154.7956 154.7956 0 0 1 44.270337-9.697312v84.324452q-45.234045 16.142109-66.616317 38.969942a79.80707 79.80707 0 0 0-21.32204 56.316688 80.83101 80.83101 0 0 0 24.75525 59.027116 96.852656 96.852656 0 0 0 63.243339 27.947532v41.138286h31.32051v-40.114346q45.41474-2.04788 68.543733-14.515852v-57.280395a156.241162 156.241162 0 0 1-68.543733 22.526675v-87.336039q46.860302-18.069525 68.001647-39.271102a74.325981 74.325981 0 0 0 21.141345-54.208576 77.277337 77.277337 0 0 0-23.73131-58.605494q-23.73131-22.586907-65.471913-26.923593z m-31.320511 313.807423q-31.742133-6.023175-31.681901-33.970708 0-23.550615 31.681901-39.873419z m31.320511-216.412682q32.705841 5.119699 32.70584 33.127463 0 22.70737-32.70584 37.644845z"  horiz-adv-x="1054" />

    
    <glyph glyph-name="tuihuanhuo" unicode="&#58901;" d="M1127.343348 476.748389c-4.631754-6.119014-8.654439-12.832932-14.008576-18.243727-30.680056-31.076659-61.657565-61.841702-92.550087-92.691731-14.50433-14.490165-33.01718-14.50433-47.493181 0-32.393947 32.351454-64.64625 64.87288-97.252663 97.011868-9.164357 9.022713-11.04822 19.660165-8.668603 31.161645 4.249315 20.680001 32.337289 27.960495 48.357208 12.606302 13.456165-12.903754 26.430741-26.303262 39.660276-39.476139a15.580823 15.580823 0 0 1 6.487288-4.249315c-2.832877 12.393836-5.453288 24.872659-8.682767 37.167344C906.648076 677.415221 752.596232 813.16668 571.47625 836.410435a457.509614 457.509614 0 0 1-479.464409-275.38396c-115.340582-272.267795 55.765181-574.068332 338.528785-625.329239 152.805378-27.7197 285.823111 16.274878 398.92572 121.955349 7.167178 6.699754 14.348521 11.883918 24.745179 11.643124 13.399508-0.311616 22.436385-5.29748 26.827344-15.779124 4.801726-11.458987 2.337123-25.595042-6.218165-34.192824a497.16989 497.16989 0 0 0-78.867292-64.320469c-64.87288-42.748112-135.978089-68.980552-212.791545-79.887127-7.436302-1.048164-14.872604-2.053836-22.308905-3.073672h-97.734252a20.878302 20.878302 0 0 1-3.951864 1.189808c-63.088168 6.218165-123.343459 22.946303-179.476913 52.280743Q55.963482 42.44003699999996 6.91222 290.500899c-2.932028 14.745124-4.645918 29.745207-6.91222 44.617811v97.734252l3.045343 21.544028c12.294686 86.671868 43.371345 165.86494 95.892881 236.006972Q219.845409 851.849614 418.543392 889.101945c14.773453 2.832877 29.745207 4.617589 44.575318 6.898055h99.15069a27.833015 27.833015 0 0 1 3.90937-1.232301c20.680001-3.385288 41.572468-5.665754 62.011675-10.226686 182.564749-40.113536 333.033004-185.142667 379.860458-366.13517 5.665754-22.039782 9.603453-44.546989 14.405179-67.153346 1.416438 1.317288 3.144493 2.832877 4.759233 4.405123 16.529837 16.501508 32.719728 33.357125 49.759482 49.306222a36.629098 36.629098 0 0 0 17.818796 8.611946c15.325864 2.719562 26.374084-4.008521 32.578084-18.4137zM530.484522 175.35861899999998v-24.759344a91.955183 91.955183 0 0 0-0.524083-10.594959c-1.713891-13.668631-8.017042-18.116248-24.575206-17.549672-11.331507 0.382438-17.804631 6.728083-18.243727 19.022768-0.410767 11.331507-0.084986 22.592193-0.084987 33.994522-12.53548 2.266301-24.731015 3.583589-36.430796 6.756411-42.394002 11.515644-75.510333 34.589427-90.156306 77.904114-3.753562 11.119042-4.249315 23.512878-5.000028 35.410961-0.538247 9.320165 7.181343 16.246549 16.515672 16.997261 17.535508 1.274795 24.702686-4.107671 29.603563-22.252248 11.161535-41.28918 41.756605-66.416798 85.071292-69.405483 0.113315 2.266301 0.311616 4.518439 0.311617 6.770576 0 45.32603-0.070822 90.65206 0.127479 135.978089 0 5.39663-1.416438 7.677096-6.926384 9.008549-16.713973 4.008521-33.498769 8.04537-49.759482 13.526987a139.972446 139.972446 0 0 0-31.685727 15.226713c-20.410878 13.201206-30.920851 33.144659-33.470441 57.209948-6.968877 65.765236 28.654549 113.612527 93.669074 125.793897a184.363626 184.363626 0 0 0 22.42222 2.832877c4.815891 0.297452 5.835726 2.29463 5.665754 6.614768-0.254959 8.257836-0.198301 16.515672 0 24.773508 0.283288 13.682795 6.501452 20.510028 18.739481 20.878302 16.67148 0.509918 23.017125-4.433452 24.391069-19.476028 0.495753-5.382466 0.283288-10.849918 0.339946-16.260713v-15.736631c9.320165-1.728055 18.172905-2.946192 26.799015-5.028357 39.660276-9.575124 69.575456-31.161646 84.207264-70.354497 3.271973-8.781918 3.994356-18.796138 4.348466-28.328768 0.339945-8.98022-6.898055-15.708302-15.920768-16.997261-16.21822-2.308795-25.991645 3.611918-30.24096 19.575179-9.348494 35.226824-35.014358 50.581016-69.207182 57.904003v-7.577946c0-41.303345 0.127479-82.606689-0.141644-123.895869 0-5.906548 1.869699-8.017042 7.436302-9.475974 19.589344-5.155836 39.419482-9.830083 58.399757-16.742302 33.01718-11.997234 56.657537-33.867043 63.668907-69.745428 12.379672-63.328962-22.308905-117.125294-86.176114-133.853432-13.824439-3.498603-28.116303-5.325809-43.173043-8.144521z m0.495753 44.504496c5.453288 0.736548 10.11337 1.246466 14.73096 1.997178 32.960522 5.382466 56.954989 21.714001 66.161839 55.326085 6.147343 22.42222-0.949014 41.076715-18.498686 55.453564-17.932111 14.702631-39.830249 20.623344-62.394113 26.572385z m-44.320359 326.545716c-4.589261-0.665726-8.314494-1.118986-11.983069-1.756384-23.866988-4.136-42.620632-16.019919-54.688688-37.28066-13.753617-24.235262-8.909398-52.252414 11.685618-67.351647 16.274878-11.926412 35.410961-16.841453 55.000304-22.153097z"  horiz-adv-x="1126" />

    


  </font>
</defs>
</svg>
